Login
Username:
Password:
[Signup]
[Recover Account]


Browse Torrents

Poll


You must be logged in to view polls



Latest Torrents
Fantastic Beasts T...
- [Size: 743.06 MB]

Speed Kills (2018)...
- [Size: 802.82 MB]

Videoman.2018.BDRi...
- [Size: 545.41 MB]

18+ A Taruna Khana...
- [Size: 131.00 MB]

Bad.Blood.2017.S02...
- [Size: 222.71 MB]


Torrent Details For "Daddy (2017) 1080p WEBHD H263 AAC2.0 ESub-DDR"

Daddy (2017) 1080p WEBHD H263 AAC2.0 ESub-DDR

Download this torrent | Magnet Download
Health:
Seeds: 0
Leechers: 4
Completed:
Last Checked: 12-09-2018 04:41:53
External Torrent
Update Stats



Images Host

Poster


iMDB
Imdb Picture Title: Daddy
Year: 2017
Runtime: 134 minutes
Votes: 351
Rating: 6.3/10
Language: Hindi
Country: India
All Genres: Action, Biography, Crime, Drama, History
Plot Outline: From the rough streets and back alleys of Central Mumbai comes the sensational true story of Arun Gawli, a man who scripted his own destiny, eventually going on to become one of India's most feared gangsters. Today he remains an enigmatic figure; at once a volatile, power-hungry criminal for some and the respected "Daddy" or a modern day Robin Hood for the working-class neighborhood he belongs to...
Director: Ashim Ahluwalia
Writing By: Ashim Ahluwalia,Arjun Rampal,Ritesh Shah,
Produced By: Priyanka Bangia,Niraj Pamwani,Rutvij Patel,Arjun Rampal,
Music: Sajid Ali Wajid Ali
Cast:
Arjun Rampal as Arun Gawli
Aishwarya Rajesh as Asha Gawli
Nishikant Kamat as Inspector Vijaykar Nitin
Anand Ingale as Babu Reshim
Rajesh Shringarpore as Rama Naik
Purnanand Wandekar as Vijay
Anupriya Goenka as Hilda
Shruti Bapna as Rani
Usha Naik as Arun's Mother
Shrikant Yadav as Sada


Watch-Free-HD     Download

Details
Name:Daddy (2017) 1080p WEBHD H263 AAC2.0 ESub-DDR
Description:
General
Complete name               : Daddy (2017) 1080p WEBHD H263 AAC2.0 ESub-DDR.mp4
Format                      : MPEG-4
Format profile              : Base Media
Codec ID                    : isom (isom/iso2/mp41)
File size                   : 7.78 GiB
Duration                    : 2 h 13 min
Overall bit rate mode       : Variable
Overall bit rate            : 8 322 kb/s
Movie name                  : Daddy (2017) 1080p WEBHD H263 AAC2.0 ESub-DDR
Performer                   : Action Biography Crime Drama History
Director                    : Ashim Ahluwalia
Actor                       : Arjun Rampal, Aishwarya Rajesh, Nishikant Kamat
Screenplay by               : Ashim Ahluwalia, Arjun Rampal
Producer                    : Rutvij Patel, Arjun Rampal
Production studio           : Raksha Entertainment
Genre                       : Action Biography Crime Drama History
ContentType                 : Short Film
Recorded date               : 2017
Tagged date                 : UTC 2017-10-08 10:17:17
Writing application         : Lavf55.33.100
Cover                       : Yes
Lyrics                      : From the rough streets and back alleys of Central Mumbai comes the sensational true story of Arun Gawli, a man who scripted his own destiny, eventually going on to become one of India's most feared gangsters. Today he remains an enigmatic figure; at once a volatile, power-hungry criminal for some and the respected "Daddy" or a modern day Robin Hood for the working-class neighborhood he belongs to. Daddy follows the intertwined fates of the world-weary Gawli as he attempts to enter politics and a frustrated Police inspector with a secret history of his own. An unfolding jigsaw puzzle, told from different points-of-view and spanning over four decades, Daddy is an unforgettable excursion into the Mumbai underworld.

Video
ID                          : 1
Format                      : MPEG-4 Visual
Format profile              : [email protected]
Format settings, BVOP       : No
Format settings, QPel       : No
Format settings, GMC        : No warppoints
Format settings, Matrix     : Default (H.263)
Codec ID                    : mp4v-20
Duration                    : 2 h 13 min
Bit rate mode               : Variable
Bit rate                    : 8 094 kb/s
Maximum bit rate            : 184 Mb/s
Width                       : 1 920 pixels
Height                      : 816 pixels
Display aspect ratio        : 2.35:1
Frame rate mode             : Variable
Frame rate                  : 23.976 (23976/1000) FPS
Color space                 : YUV
Chroma subsampling          : 4:2:0
Bit depth                   : 8 bits
Scan type                   : Progressive
Compression mode            : Lossy
Bits/(Pixel*Frame)          : 0.215
Stream size                 : 7.57 GiB (97%)
Writing library             : Lavc55.52.102

Audio
ID                          : 2
Format                      : AAC
Format/Info                 : Advanced Audio Codec
Format profile              : LC
Codec ID                    : mp4a-40-2
Duration                    : 2 h 13 min
Bit rate mode               : Variable
Bit rate                    : 222 kb/s
Maximum bit rate            : 341 kb/s
Channel(s)                  : 2 channels
Channel positions           : Front: L R
Sampling rate               : 48.0 kHz
Frame rate                  : 46.875 FPS (1024 SPF)
Compression mode            : Lossy
Stream size                 : 213 MiB (3%)
Default                     : Yes


 http://extraimage.net/images/...858a6b97fb81e6fe.png

 http://extraimage.net/images/...1ff9fe893e4b85c6.png

 http://extraimage.net/images/...2179908a909b8a2a.png

 http://extraimage.net/images/...ba5574d8cc3192ea.png

 http://extraimage.net/images/...a622561ed9f7a943.png

 http://extraimage.net/images/...49e1a95bae4b6edd.png

Category:Movies > Bollywood
Lang:Hindi
Total Size:7.78 GB
Info Hash:81e2b2a2b950cc51e44270cf47b53b7ccebacf7b
Added By:Unknown
Date Added:08-10-2017 12:18:54
Downloads:505

Ratings:Not Yet Rated (Log in to rate it)


Tracker:
http://ipv4.tracker.harry.lu/announce

This Torrent also has backup trackers
URLSeedersLeechersCompleted
http://ipv4.tracker.harry.lu/announce120
http://ipv4.tracker.harry.lu:80/announce120
http://opentracker-milanesi.rhcloud.com/announce000
http://t.nyaatracker.com/announce010
http://tracker.devil-torrents.pl:80/announce460
http://tracker.devil-torrents.pl/announce460
http://open.kickasstracker.com/announce460
http://opentracker-milanesi.rhcloud.com:80/announce000
http://open.kickasstracker.com:443/announce460
http://opentracker-milanesi.rhcloud.com:443/announce000
http://t.nyaatracker.com:80/announce010


File List: 


Comments

<< Previous      Next >>
1 - 1

[Report] Posted: 08-10-2017 at 13:41:00
300mbmovieshub



SEED IT FAST PLEASE

1 - 1
<< Previous      Next >>


Top
Copyright 2018 DownloadHD -|- Page Generated In 1.516691 secs.
-|- RSS Feed -|- Feed Info
Thám Tử Lừng Danh Conan chap 958 | Fantasy-SF-Horror (28) | Brennan Brown