Login
Username:
Password:
[Signup]
[Recover Account]


Browse Torrents

Poll


You must be logged in to view polls



Latest Torrents
5 Weddings (2018) ...
- [Size: 698.51 MB]

Crazy.Rich.Asians....
- [Size: 3.20 GB]

BigBoss.S12.Ep41.1...
- [Size: 3.50 GB]

Puzzle.2018.HDRip....
- [Size: 1.43 GB]

Puzzle.2018.HDRip....
- [Size: 1.34 GB]


Torrent Details For "Nice.Dreams.1981.1080p.AMZN.WEBRip.DDP2.0.x264-monkee"

Nice.Dreams.1981.1080p.AMZN.WEBRip.DDP2.0.x264-monkee

Download this torrent | Magnet Download
Health:
Seeds: 0
Leechers: 20
Completed:
Last Checked: 11-04-2018 18:08:14
External Torrent
Update Stats



Images Host

Poster


iMDB
Imdb Picture Title: Nice Dreams
Year: 1981
Runtime: 88 minutes
Votes: 5984
Rating: 6.2/10
Language: English
Country: USA
All Genres: Comedy, Crime
Plot Outline: Disguised as ice cream vendors, Cheech and Chong make--and subsequently lose--millions of dollars selling a batch of marijuana with an unusual side effect.
Tagline: The story of two enterprising young men who make an amazing amount of money selling ice cream.
Director: Tommy Chong
Writing By: Tommy Chong,Cheech Marin,
Produced By: Howard Brown,Shelby Chong,
Music: Harry Betts
Cast:
Tommy Chong as Chong
Cheech Marin as Cheech
Benita Barrie as Mrs. Del Whacko, Owner Casa Del Whacko
Sandra Bernhard as Girl Nut
Big Yank as Male Nurse #2
Don Carlson as Nut #7
David Castle as Nut #8
Jerry Chambers as Male Nurse #1
Jennifer Child as Dishwater / Blondie Group #5
Shelby Chong as Body Builder


Watch-Free-HD     Download

Details
Name:Nice.Dreams.1981.1080p.AMZN.WEBRip.DDP2.0.x264-monkee
Description:
MediaInfo

Video
ID                                       : 1
Format                                   : AVC
Format/Info                              : Advanced Video Codec
Format profile                           : [email protected]
Format settings, CABAC                   : Yes
Format settings, ReFrames                : 4 frames
Codec ID                                 : V_MPEG4/ISO/AVC
Duration                                 : 1 h 27 min
Bit rate mode                            : Variable
Bit rate                                 : 14.7 Mb/s
Maximum bit rate                         : 15.0 Mb/s
Width                                    : 1 920 pixels
Height                                   : 1 080 pixels
Display aspect ratio                     : 16:9
Frame rate mode                          : Constant
Frame rate                               : 23.976 (24000/1001) FPS
Color space                              : YUV
Chroma subsampling                       : 4:2:0
Bit depth                                : 8 bits
Scan type                                : Progressive
Bits/(Pixel*Frame)                       : 0.295
Stream size                              : 8.95 GiB (98%)
Default                                  : Yes
Forced                                   : No
Color range                              : Limited
Color primaries                          : BT.709
Transfer characteristics                 : BT.709
Matrix coefficients                      : BT.709

Audio
ID                                       : 2
Format                                   : E-AC-3
Format/Info                              : Enhanced Audio Coding 3
Format settings, Endianness              : Big
Codec ID                                 : A_EAC3
Duration                                 : 1 h 27 min
Bit rate mode                            : Constant
Bit rate                                 : 224 kb/s
Channel(s)                               : 2 channels
Channel positions                        : Front: L R
Sampling rate                            : 48.0 kHz
Frame rate                               : 187.500 FPS (256 spf)
Compression mode                         : Lossy
Stream size                              : 140 MiB (2%)
Language                                 : English
Service kind                             : Complete Main
Default                                  : Yes
Forced                                   : No

Text
ID                                       : 3
Format                                   : UTF-8
Codec ID                                 : S_TEXT/UTF8
Codec ID/Info                            : UTF-8 Plain Text
Duration                                 : 1 h 26 min
Bit rate                                 : 73 b/s
Count of elements                        : 1232
Stream size                              : 46.6 KiB (0%)
Language                                 : English
Default                                  : No
Forced                                   : No

 
 
 
 
 
 
Category:Movies > WEB-HD
Lang:English  English
Total Size:9.09 GB
Info Hash:96f5a8c07c600cd58b90687dfce3bb33811ab403
Added By:Scene
Date Added:05-10-2017 22:46:40
Downloads:36

Ratings:Not Yet Rated (Log in to rate it)


Tracker:
http://tracker.trackerfix.com:80/announce


File List: 


Comments

No comments still posted

Top
Copyright 2018 DownloadHD -|- Page Generated In 0.700087 secs.
-|- RSS Feed -|- Feed Info