Login
Username:
Password:
[Signup]
[Recover Account]


Browse Torrents

Poll


You must be logged in to view polls



Latest Torrents
MacGyver.2016.S03E...
- [Size: 1.36 GB]

Room.104.S02E03.WE...
- [Size: 223.50 MB]

Real.Time.With.Bil...
- [Size: 329.66 MB]

Van.Helsing.S03E07...
- [Size: 825.83 MB]

Van.Helsing.S03E07...
- [Size: 604.10 MB]


Torrent Details For "Captain Underpants The First Epic Movie (2017) BluRay 1080p x264 Dual Audio [Hindi DD 5.1-Engli..."

Captain Underpants The First Epic Movie (2017) BluRay 1080p x264 Dual Audio [Hindi DD 5.1-Engli...

Download this torrent | Magnet Download
Health:
Seeds: 0
Leechers: 9
Completed: 25,951 
Last Checked: 22-08-2018 06:31:12
External Torrent
Update Stats



Images Host

Poster


Watch-Free-HD     Download

Details
Name:Captain Underpants The First Epic Movie (2017) BluRay 1080p x264 Dual Audio [Hindi DD 5.1-Engli...
Description:

Captain Underpants The First Epic Movie (2017) BluRay 1080p x264 Dual Audio [Hindi DD 5.1-ENglish DTS 5.1] MSubs...Download

General
Format                                   : Matroska
Format version                           : Version 4 / Version 2
File size                                : 4.34 GiB
Duration                                 : 1 h 28 min
Overall bit rate                         : 7 007 kb/s
Movie name                               : Captain Underpants The First Epic [email protected]

Video
Format                                   : AVC
Format/Info                              : Advanced Video Codec
Format profile                           : [email protected]
Format settings, CABAC                   : Yes
Format settings, RefFrames               : 4 frames
Codec ID                                 : V_MPEG4/ISO/AVC
Duration                                 : 1 h 28 min
Bit rate                                 : 5 000 kb/s
Width                                    : 1 920 pixels
Height                                   : 1 040 pixels
Display aspect ratio                     : 1.85:1
Frame rate mode                          : Constant
Frame rate                               : 23.976 (24000/1001) FPS
Color space                              : YUV
Chroma subsampling                       : 4:2:0
Bit depth                                : 8 bits
Scan type                                : Progressive
Bits/(Pixel*Frame)                       : 0.104
Stream size                              : 3.10 GiB (71%)
Title                                    : Captain Underpants The First Epic [email protected]

Hindi Audio Credits To Rohit Sharma.. Thank You Soo Much

Audio 1
Format                                   : AC-3
Format/Info                              : Audio Coding 3
Format settings, Endianness              : Big
Codec ID                                 : A_AC3
Duration                                 : 1 h 28 min
Bit rate mode                            : Constant
Bit rate                                 : 448 kb/s
Channel(s)                               : 6 channels
Channel positions                        : Front: L C R, Side: L R, LFE
Sampling rate                            : 48.0 kHz
Frame rate                               : 31.250 FPS (1536 SPF)
Bit depth                                : 16 bits
Compression mode                         : Lossy
Stream size                              : 284 MiB (6%)
Title                                    : [email protected]
Language                                 : Hindi
Service kind                             : Complete Main
Default                                  : Yes
Forced                                   : Yes

Audio 2
Format                                   : DTS
Format/Info                              : Digital Theater Systems
Format profile                           : ES Matrix / Core
Mode                                     : 16
Format settings, Endianness              : Big
Codec ID                                 : A_DTS
Duration                                 : 1 h 28 min
Bit rate mode                            : Constant
Bit rate                                 : 1 509 kb/s
Channel(s)                               : 7 channels / 6 channels
Channel positions                        : Front: L C R, Side: L R, Back: C, LFE / Front: L C R, Side: L R, LFE
Sampling rate                            : 48.0 kHz
Frame rate                               : 93.750 FPS (512 SPF)
Bit depth                                : 24 bits
Compression mode                         : Lossy
Stream size                              : 957 MiB (22%)
Title                                    : [email protected]
Language                                 : English
Default                                  : No

SubTitle
Format                                   : PGS
Muxing mode                              : zlib
Codec ID                                 : S_HDMV/PGS
Codec ID/Info                            : Picture based subtitle format used on BDs/HD-DVDs
Duration                                 : 1 h 27 min
Bit rate                                 : 12.9 kb/s
Count of elements                        : 2950
Stream size                              : 8.06 MiB (0%)
Title                                    : Hindi [email protected]
Default                                  : No

SubTitle
Format                                   : PGS
Muxing mode                              : zlib
Codec ID                                 : S_HDMV/PGS
Codec ID/Info                            : Picture based subtitle format used on BDs/HD-DVDs
Duration                                 : 1 h 20 min
Bit rate                                 : 14.8 kb/s
Count of elements                        : 2912
Stream size                              : 8.54 MiB (0%)
Title                                    : English [email protected]
Default                                  : No

SubTitle SRT Format Included

Chapters Menu
00:00:00.000                             : en:00:00:00.000
00:03:54.359                             : en:00:03:54.359
00:06:58.918                             : en:00:06:58.918
00:10:08.441                             : en:00:10:08.441
00:12:58.653                             : en:00:12:58.653
00:15:08.658                             : en:00:15:08.658
00:17:44.981                             : en:00:17:44.981
00:20:42.783                             : en:00:20:42.783
00:23:45.257                             : en:00:23:45.257
00:25:44.668                             : en:00:25:44.668
00:29:26.264                             : en:00:29:26.264
00:33:55.659                             : en:00:33:55.659
00:38:24.177                             : en:00:38:24.177
00:42:10.194                             : en:00:42:10.194
00:46:12.061                             : en:00:46:12.061
00:52:17.801                             : en:00:52:17.801
00:55:02.841                             : en:00:55:02.841
00:57:37.621                             : en:00:57:37.621
01:00:57.445                             : en:01:00:57.445
01:04:30.116                             : en:01:04:30.116
01:08:24.934                             : en:01:08:24.934
01:11:42.089                             : en:01:11:42.089
01:15:44.373                             : en:01:15:44.373
01:19:03.322                             : en:01:19:03.322









Category:Movies > Hollywood Dub
Lang:Hindi
Total Size:4.34 GB
Info Hash:c5fb1abc790d518cd953bf2db379efde25c247e8
Added By:Download
Date Added:05-10-2017 08:18:54
Downloads:138

Ratings:Not Yet Rated (Log in to rate it)


Tracker:
http://ipv4.tracker.harry.lu/announce

This Torrent also has backup trackers
URLSeedersLeechersCompleted
http://ipv4.tracker.harry.lu/announce5594
http://ipv4.tracker.harry.lu:80/announce5594
http://opentracker-milanesi.rhcloud.com/announce000
http://t.nyaatracker.com/announce030
http://tracker.devil-torrents.pl:80/announce8100
http://tracker.devil-torrents.pl/announce8100
http://open.kickasstracker.com/announce9130
http://opentracker-milanesi.rhcloud.com:80/announce000
http://open.kickasstracker.com:443/announce9130
http://opentracker-milanesi.rhcloud.com:443/announce000
http://t.nyaatracker.com:80/announce030


File List: 


Comments

No comments still posted

Top
Copyright 2018 DownloadHD -|- Page Generated In 1.180067 secs.
-|- RSS Feed -|- Feed Info
The Killer Robots Crash and Burn 2016 HDRip XviD AC3-EVO | Hira Chuni Panna (2018) Bangla Hot Movie 720p HDRip 700MB Download | 2014 Hindi