Login
Username:
Password:
[Signup]
[Recover Account]


Browse Torrents

Poll


You must be logged in to view polls



Latest Torrents
Villain (2018) Ben...
- [Size: 558.96 MB]

Villain (2018) Ben...
- [Size: 1.49 GB]

Mirzapur (2018) Se...
- [Size: 3.39 GB]

The.Daily.Show.201...
- [Size: 311.67 MB]

How.to.Get.Away.wi...
- [Size: 1.17 GB]


Torrent Details For "Captain Underpants The First Epic Movie 2017 1080p BluRay Dual Audio Hindi DD 5.1 English 6CH M..."

Captain Underpants The First Epic Movie 2017 1080p BluRay Dual Audio Hindi DD 5.1 English 6CH M...

Download this torrent | Magnet Download
Health:
Seeds: 0
Leechers: 17
Completed: 46,193 
Last Checked: 13-08-2018 11:39:57
External Torrent
Update Stats



Images Host

Poster


iMDB
Imdb Picture Title: Captain Underpants: The First Epic Movie
Year: 2017
Runtime: 89 minutes
Votes: 4223
Rating: 6.6/10
Language: English
Country: USA
All Genres: Animation, Action, Comedy, Family
Plot Outline: Two overly imaginative pranksters named George and Harold hypnotize their principal into thinking he's a ridiculously enthusiastic, incredibly dimwitted superhero named Captain Underpants.
Tagline: 50% Hero. 100% Cotton
Director: David Soren
Writing By: Nicholas Stoller,Dav Pilkey,David Soren,
Produced By: Marie Balland,Rob Letterman,Daniela Mazzucato,Dav Pilkey,Damien Simonklein,Mireille Soria,Mark Swift,
Music: Theodore Shapiro
Plot:

Two overly imaginative pranksters named George and Harold hypnotize their principal into thinking he's a ridiculously enthusiastic, incredibly dimwitted superhero named Captain Underpants.

- Written by Twentieth Century Fox
Cast:
Kevin Hart as George
Ed Helms as Captain Underpants / Mr. Krupp
Nick Kroll as Professor Poopypants
Thomas Middleditch as Harold
Jordan Peele as Melvin
Kristen Schaal as Edith
DeeDee Rescher as Ms. Ribble
Brian Posehn as Mr. Rected
David Soren as Tommy
Mel Rodriguez as Mr. Fyde
Trailers:
Trailer #1


Watch-Free-HD     Download

Details
Name:Captain Underpants The First Epic Movie 2017 1080p BluRay Dual Audio Hindi DD 5.1 English 6CH M...
Description:

 

First On Net

Movie Encode From Full BD/BDREMUX

My Cousin Rachel 2017 1080p BluRay Dual Audio DD 5.1 Hindi English MAVI

 IMDB Link

 Join Us Now

 Join Us Now FaceBook

 Org Bluray Audio

[url=Sample Include in torrent]Sample Include in torrent[/url]

Complete name               : Captain Underpants The First Epic Movie 2017 1080p BluRay Dual Audio Hindi DD 5.1 English 6CH MAVI.mkv
Format                      : Matroska
Format version              : Version 4 / Version 2
File size                   : 3.14 GiB
Duration                    : 1 h 28 min
Overall bit rate mode       : Variable
Overall bit rate            : 5 074 kb/s
Movie name                  : Captain Captain Underpants The First Epic Movie 2017 1080p BluRay Dual Audio Hindi DD 5.1 English 6CH MAVI The First Epic Movie 2017 1080p BluRay
Writing library             : libebml v1.3.5 + libmatroska v1.4.5

Video
ID                          : 1
Format                      : AVC
Format/Info                 : Advanced Video Codec
Format profile              : [email protected]
Format settings             : CABAC / 4 Ref Frames
Format settings, CABAC      : Yes
Format settings, RefFrames  : 4 frames
Codec ID                    : V_MPEG4/ISO/AVC
Duration                    : 1 h 28 min
Bit rate mode               : Variable
Bit rate                    : 4 096 kb/s
Maximum bit rate            : 62.5 Mb/s
Width                       : 1 920 pixels
Height                      : 1 036 pixels
Display aspect ratio        : 1.85:1
Frame rate mode             : Constant
Frame rate                  : 23.976 (24000/1001) FPS
Color space                 : YUV
Chroma subsampling          : 4:2:0
Bit depth                   : 8 bits
Scan type                   : Progressive
Bits/(Pixel*Frame)          : 0.086
Stream size                 : 2.54 GiB (81%)
Title                       : Captain Underpants The First Epic Movie 2017 1080p BluRay Dual Audio Hindi DD 5.1 English 6CH MAVI
Default                     : Yes
Forced                      : No

Audio #1
ID                          : 2
Format                      : AC-3
Format/Info                 : Audio Coding 3
Format settings, Endianness : Big
Codec ID                    : A_AC3
Duration                    : 1 h 28 min
Bit rate mode               : Constant
Bit rate                    : 448 kb/s
Channel(s)                  : 6 channels
Channel positions           : Front: L C R, Side: L R, LFE
Sampling rate               : 48.0 kHz
Frame rate                  : 31.250 FPS (1536 SPF)
Bit depth                   : 16 bits
Compression mode            : Lossy
Stream size                 : 284 MiB (9%)
Title                       : Org Bluray DD 5.1 448kbps
Language                    : Hindi
Service kind                : Complete Main
Default                     : No
Forced                      : No

Audio #2
ID                          : 3
Format                      : AC-3
Format/Info                 : Audio Coding 3
Format settings, Endianness : Big
Codec ID                    : A_AC3
Duration                    : 1 h 28 min
Bit rate mode               : Constant
Bit rate                    : 448 kb/s
Channel(s)                  : 6 channels
Channel positions           : Front: L C R, Side: L R, LFE
Sampling rate               : 48.0 kHz
Frame rate                  : 31.250 FPS (1536 SPF)
Bit depth                   : 16 bits
Compression mode            : Lossy
Stream size                 : 284 MiB (9%)
Title                       : Org Bluray DD 5.1 448kbps
Language                    : English
Service kind                : Complete Main
Default                     : Yes
Forced                      : No

Text #1
ID                          : 4
Format                      : PGS
Codec ID                    : S_HDMV/PGS
Codec ID/Info               : Picture based subtitle format used on BDs/HD-DVDs
Duration                    : 1 h 27 min
Bit rate                    : 36.8 kb/s
Count of elements           : 2950
Stream size                 : 23.0 MiB (1%)
Title                       : Hindi PGS
Language                    : Hindi
Default                     : Yes
Forced                      : No

Text #2
ID                          : 5
Format                      : PGS
Codec ID                    : S_HDMV/PGS
Codec ID/Info               : Picture based subtitle format used on BDs/HD-DVDs
Duration                    : 1 h 20 min
Bit rate                    : 48.4 kb/s
Count of elements           : 2912
Stream size                 : 28.0 MiB (1%)
Title                       : English PGS
Language                    : English
Default                     : No
Forced                      : No

Menu
00:00:00.000                : en:Chapter 01
00:03:54.359                : en:Chapter 02
00:06:58.793                : en:Chapter 03
00:10:08.441                : en:Chapter 04
00:12:58.652                : en:Chapter 05
00:15:08.657                : en:Chapter 06
00:17:44.813                : en:Chapter 07
00:20:42.616                : en:Chapter 08
00:23:44.923                : en:Chapter 09
00:25:44.501                : en:Chapter 10
00:29:25.972                : en:Chapter 11
00:33:55.658                : en:Chapter 12
00:38:24.135                : en:Chapter 13
00:42:09.944                : en:Chapter 14
00:46:12.060                : en:Chapter 15
00:52:17.801                : en:Chapter 16
00:55:02.757                : en:Chapter 17
00:57:37.328                : en:Chapter 18
01:00:57.445                : en:Chapter 19
01:04:29.866                : en:Chapter 20
01:08:24.934                : en:Chapter 21
01:11:42.089                : en:Chapter 22
01:15:44.373                : en:Chapter 23
01:19:02.946                : en:Chapter 24













Category:Movies > Hollywood Dub
Lang:Hindi
Total Size:3.20 GB
Info Hash:478f58b03e969fe00cd4695bc15dcdbfa47d589b
Added By:Sup2425
Date Added:05-10-2017 06:32:47
Downloads:99

Ratings:Not Yet Rated (Log in to rate it)


Tracker:
udp://inferno.demonoid.pw:3391/announce


File List: 


Comments

No comments still posted

Top
Copyright 2018 DownloadHD -|- Page Generated In 2.908761 secs.
-|- RSS Feed -|- Feed Info