Login
Username:
Password:
[Signup]
[Recover Account]


Browse Torrents

Poll


You must be logged in to view polls



Latest Torrents
Mom.S06E11.HDTV.x2...
- [Size: 142.47 MB]

Mom.S06E11.720p.HD...
- [Size: 496.39 MB]

Mom.S06E11.720p.HD...
- [Size: 529.14 MB]

Supernatural.S14E0...
- [Size: 149.74 MB]

The.Apprentice.UK....
- [Size: 806.65 MB]


Torrent Details For "Azhar 2016 1080p Bluray 10bit x265 7.1 AAC HEVC Natty"

Azhar 2016 1080p Bluray 10bit x265 7.1 AAC HEVC Natty

Download this torrent | Magnet Download
Health:
Seeds: 4
Leechers: 0
Completed: 108 
Last Checked: 11-12-2018 17:50:40
External Torrent
Update Stats



Images Host

Poster


iMDB
Imdb Picture Title: Azhar
Year: 2016
Runtime: 130 minutes
Votes: 4350
Rating: 5.9/10
Language: Hindi, Urdu
Country: India
All Genres: Biography, Drama, Sport
Plot Outline: Biographical sports drama based on the life of former Indian international cricketer, Mohammad Azharuddin.
Tagline: Love him. Hate him. Judge him.
Director: Anthony D'Souza
Writing By: Rajat Arora,Aditi Mediratta,
Produced By: Tanveer Bookwala,Ashwani Chopra,Anjali D'Cunha,Aman Gill,Bill Hayes,Sameer Qasim Isa,Kasia Kaczmarek,Ekta Kapoor,Shobha Kapoor,Firuzi Khan,Pranjal Khandhdiya,Farid Malick,Sameer Nair,Chirag Nihalani,Sakett Saawhney,Karishma Naina Sharma,Geetika Sood,Nitin Upadhyaya,
Music: Sandeep Shirodkar
Cast:
Emraan Hashmi as Azhar
Nargis Fakhri as Sangeeta
Prachi Desai as Naureen
Lara Dutta as Meera Verma
Kunaal Roy Kapur as Reddy
Gautam Gulati as Ravi
Anikie Maguire as Racecourse Spectator
Kulbhushan Kharbanda as Nanujaan
Rajesh Sharma as M.K Sharma
Shernaz Patel as Azhar's Mom


Watch-Free-HD     Download

Details
Name:Azhar 2016 1080p Bluray 10bit x265 7.1 AAC HEVC Natty
Description:
Azhar 2016 in 1080p, encoded with x265 (HEVC) and AAC 7.1 Hindi Audio with multiple subtitles!
Encoded using the time consuming Slow Preset with 2 pass, 10 bit color at 4000 kbps bitrate, from an Untouched Bluray Source, for the highest quality possible.



PLEASE SEED IF YOU WANT ME TO UPLOAD MORE:Qpirate:

Quote:

RECOMMENDED PLAYER: POTPLAYER

Source: Untouched Bluray by DownloadHD

Screenshots











Encode Media Info:

Quote:

General
Complete name                            : Azhar 2016 1080p Bluray 10bit x265 7.1 AAC HEVC Natty.mkv
Format                                   : Matroska
Format version                           : Version 4 / Version 2
File size                                : 3.62 GiB
Duration                                 : 2 h 11 min
Overall bit rate                         : 3 943 kb/s
Movie name                               : Azhar
Encoded date                             : UTC 2017-09-15 22:38:36
Writing application                      : mkvmerge v15.0.0 ('Duel with the Devil') 64-bit
Writing library                          : libebml v1.3.5 + libmatroska v1.4.5
Cover                                    : Yes
Attachments                              : cover.jpg
Writing frontend                         : Natty

Video
ID                                       : 1
Format                                   : HEVC
Format/Info                              : High Efficiency Video Coding
Format profile                           : Main [email protected]@Main
Codec ID                                 : V_MPEGH/ISO/HEVC
Duration                                 : 2 h 11 min
Bit rate                                 : 3 334 kb/s
Width                                    : 1 920 pixels
Height                                   : 820 pixels
Display aspect ratio                     : 2.35:1
Frame rate mode                          : Constant
Frame rate                               : 24.000 FPS
Color space                              : YUV
Chroma subsampling                       : 4:2:0
Bit depth                                : 10 bits
Bits/(Pixel*Frame)                       : 0.088
Stream size                              : 3.06 GiB (85%)
Writing library                          : x265 2.5+16-bac53338585c:[Windows][MSVC 1911][64 bit] 10bit
Encoding settings                        : cpuid=1173503 / frame-threads=2 / numa-pools=4 / wpp / no-pmode / no-pme / no-psnr / no-ssim / log-level=4 / csvfn=D:\Encoding\Azhar\Azhar_t01_new.csv / csv-log-level=0 / input-csp=1 / input-res=1920x820 / interlace=0 / total-frames=189178 / level-idc=0 / high-tier=1 / uhd-bd=0 / ref=6 / no-allow-non-conformance / no-repeat-headers / annexb / no-aud / no-hrd / info / hash=0 / no-temporal-layers / open-gop / min-keyint=24 / keyint=400 / bframes=8 / b-adapt=2 / b-pyramid / bframe-bias=0 / rc-lookahead=100 / lookahead-slices=5 / scenecut=40 / no-intra-refresh / ctu=32 / min-cu-size=8 / no-rect / no-amp / max-tu-size=16 / tu-inter-depth=1 / tu-intra-depth=1 / limit-tu=0 / rdoq-level=2 / dynamic-rd=0.00 / no-ssim-rd / signhide / no-tskip / nr-intra=0 / nr-inter=0 / no-constrained-intra / no-strong-intra-smoothing / max-merge=2 / limit-refs=3 / limit-modes / me=3 / subme=5 / merange=57 / temporal-mvp / weightp / no-weightb / no-analyze-src-pics / deblock=-3:0 / no-sao / no-sao-non-deblock / rd=4 / no-early-skip / rskip / no-fast-intra / no-tskip-fast / no-cu-lossless / no-b-intra / no-splitrd-skip / rdpenalty=0 / psy-rd=2.00 / psy-rdoq=6.00 / no-rd-refine / analysis-reuse-mode=0 / no-lossless / cbqpoffs=0 / crqpoffs=0 / rc=abr / bitrate=3333 / qcomp=0.90 / qpstep=4 / stats-write=0 / stats-read=2 / cplxblur=20.0 / qblur=0.5 / ipratio=1.40 / pbratio=1.30 / aq-mode=3 / aq-strength=0.80 / cutree / zone-count=0 / no-strict-cbr / qg-size=16 / no-rc-grain / qpmax=69 / qpmin=0 / no-const-vbv / sar=0 / overscan=0 / videoformat=5 / range=1 / colorprim=1 / transfer=1 / colormatrix=1 / chromaloc=0 / display-window=0 / max-cll=0,0 / min-luma=0 / max-luma=1023 / log2-max-poc-lsb=8 / vui-timing-info / vui-hrd-info / slices=1 / opt-qp-pps / opt-ref-list-length-pps / multi-pass-opt-rps / scenecut-bias=0.05 / no-opt-cu-delta-qp / aq-motion / no-hdr / no-hdr-opt / no-dhdr10-opt / analysis-reuse-level=9 / scale-factor=0 / refine-intra=0 / refine-inter=0 / refine-mv=0 / no-limit-sao / ctu-info=0
Default                                  : Yes
Forced                                   : No
Color range                              : Full
Color primaries                          : BT.709
Transfer characteristics                 : BT.709
Matrix coefficients                      : BT.709

Audio
ID                                       : 2
Format                                   : AAC
Format/Info                              : Advanced Audio Codec
Format profile                           : LC
Codec ID                                 : A_AAC
Duration                                 : 2 h 11 min
Bit rate                                 : 576 kb/s
Channel(s)                               : 8 channels
Channel positions                        : Front: L C R, Side: L R, Back: L R, LFE
Sampling rate                            : 48.0 kHz
Frame rate                               : 46.875 FPS (1024 SPF)
Compression mode                         : Lossy
Delay relative to video                  : 20 ms
Stream size                              : 551 MiB (15%)
Language                                 : Hindi
Default                                  : No
Forced                                   : No

Text
ID                                       : 3
Format                                   : PGS
Muxing mode                              : zlib
Codec ID                                 : S_HDMV/PGS
Codec ID/Info                            : Picture based subtitle format used on BDs/HD-DVDs
Duration                                 : 2 h 7 min
Bit rate                                 : 36.1 kb/s
Count of elements                        : 3763
Stream size                              : 32.9 MiB (1%)
Language                                 : English
Default                                  : No
Forced                                   : No

Category:Movies > HEVC
Lang:Hindi
Total Size:3.66 GB
Info Hash:ae6f332a8cf2a17afdf29233f7cc57b8faeed066
Added By:Natty
Date Added:04-10-2017 23:40:57
Downloads:177

Ratings:Not Yet Rated (Log in to rate it)


Tracker:
udp://tracker.opentrackr.org:1337/announce


File List: 


Comments

No comments still posted

Top
Copyright 2018 DownloadHD -|- Page Generated In 4.234542 secs.
-|- RSS Feed -|- Feed Info
Loosies 2012 BRRip XviD Ac3 Feel-Free | Picnic: Entertainment and Hawk S Bay | HD The Last Wagon (1956)