Login
Username:
Password:
[Signup]
[Recover Account]


Browse Torrents

Poll


You must be logged in to view polls



Latest Torrents
Nightshift.2018.HD...
- [Size: 706.57 MB]

Jimmy.Fallon.2018....
- [Size: 579.69 MB]

Jimmy.Fallon.2018....
- [Size: 582.40 MB]

The.Voice.S15E25.X...
- [Size: 1.51 GB]

The.Voice.S15E25.W...
- [Size: 1.17 GB]


Torrent Details For "An.American.Rhapsody.2001.1080p.AMZN.WEBRip.DDP5.1.x264-monkee"

An.American.Rhapsody.2001.1080p.AMZN.WEBRip.DDP5.1.x264-monkee

Download this torrent | Magnet Download
Health:
Seeds: 0
Leechers: 1
Completed:
Last Checked: 18-07-2018 16:09:27
External Torrent
Update Stats



Images Host

Poster


iMDB
Imdb Picture Title: An American Rhapsody
Year: 2001
Runtime: 106 minutes
Votes: 3407
Rating: 6.9/10
Language: English, Hungarian
Country: USA, Hungary
All Genres: Drama
Plot Outline: A young Hungarian girl struggles to find her place in the world when she's reunited with her parents in the USA years after she was left behind during their flight from the communist country in the 1950s.
Tagline: One family struggles for survival, for justice, for freedom.
Director: Éva Gárdos
Writing By: Éva Gárdos,
Produced By: Colleen Camp,Teri Fettis-D'Ovidio,Jay Firestone,Patricia Foulkrod,Adam Haight,Stephanie Poole,Eric Sandys,Tony Thatcher,Bonnie Timmermann,Andrew G. Vajna,
Music: Cliff Eidelman
Cast:
Scarlett Johansson as Suzanne - at 15
Nastassja Kinski as Margit
Raffaella Bánsági as Suzanne - Infant
Tony Goldwyn as Peter
Ágnes Bánfalvy as Helen
Zoltán Seress as George
Klaudia Szabó as Maria - at 4
Zsolt Zágoni as Russian Soldier
András Szöke as Istvan
Erzsi Pásztor as Ilus


Watch-Free-HD     Download

Details
Name:An.American.Rhapsody.2001.1080p.AMZN.WEBRip.DDP5.1.x264-monkee
Description:
MediaInfo

Video
ID                                       : 1
Format                                   : AVC
Format/Info                              : Advanced Video Codec
Format profile                           : [email protected]
Format settings, CABAC                   : Yes
Format settings, ReFrames                : 4 frames
Codec ID                                 : V_MPEG4/ISO/AVC
Duration                                 : 1 h 46 min
Bit rate mode                            : Variable
Bit rate                                 : 13.2 Mb/s
Maximum bit rate                         : 15.0 Mb/s
Width                                    : 1 920 pixels
Height                                   : 1 080 pixels
Display aspect ratio                     : 16:9
Frame rate mode                          : Constant
Frame rate                               : 23.976 (24000/1001) FPS
Color space                              : YUV
Chroma subsampling                       : 4:2:0
Bit depth                                : 8 bits
Scan type                                : Progressive
Bits/(Pixel*Frame)                       : 0.265
Stream size                              : 9.80 GiB (95%)
Default                                  : Yes
Forced                                   : No
Color range                              : Limited
Color primaries                          : BT.709
Transfer characteristics                 : BT.709
Matrix coefficients                      : BT.709

Audio
ID                                       : 2
Format                                   : E-AC-3
Format/Info                              : Enhanced Audio Coding 3
Format settings, Endianness              : Big
Codec ID                                 : A_EAC3
Duration                                 : 1 h 46 min
Bit rate mode                            : Constant
Bit rate                                 : 640 kb/s
Channel(s)                               : 6 channels
Channel positions                        : Front: L C R, Side: L R, LFE
Sampling rate                            : 48.0 kHz
Frame rate                               : 187.500 FPS (256 spf)
Compression mode                         : Lossy
Stream size                              : 487 MiB (5%)
Language                                 : English
Service kind                             : Complete Main
Default                                  : Yes
Forced                                   : No

Text
ID                                       : 3
Format                                   : UTF-8
Codec ID                                 : S_TEXT/UTF8
Codec ID/Info                            : UTF-8 Plain Text
Duration                                 : 1 h 40 min
Bit rate                                 : 32 b/s
Count of elements                        : 820
Stream size                              : 23.7 KiB (0%)
Language                                 : English
Default                                  : No
Forced                                   : No



 
 
 
 
 
 
Category:Movies > WEB-HD
Lang:English  English
Total Size:10.27 GB
Info Hash:18c05f0cf5cca5443aac313198836ad009e23830
Added By:Scene
Date Added:14-09-2017 14:36:17
Downloads:68

Ratings:Not Yet Rated (Log in to rate it)


Tracker:
http://tracker.trackerfix.com:80/announce


File List: 


Comments

No comments still posted

Top
Copyright 2018 DownloadHD -|- Page Generated In 0.219333 secs.
-|- RSS Feed -|- Feed Info
Descargar | Ch.43 : Sagiri-san Flips in the Cultural Festival (color) | #30 - Union 09-05-2017