Login
Username:
Password:
[Signup]
[Recover Account]


Browse Torrents

Poll


You must be logged in to view polls



Latest Torrents
5 Weddings (2018) ...
- [Size: 698.51 MB]

Crazy.Rich.Asians....
- [Size: 3.20 GB]

BigBoss.S12.Ep41.1...
- [Size: 3.50 GB]

Puzzle.2018.HDRip....
- [Size: 1.43 GB]

Puzzle.2018.HDRip....
- [Size: 1.34 GB]


Torrent Details For "Ballavpur Ki Roopkatha 2017 Hindi Untouched 1080p WEBHD x264 AAC - DownloadHD"

Ballavpur Ki Roopkatha 2017 Hindi Untouched 1080p WEBHD x264 AAC - DownloadHD

Download this torrent | Magnet Download
Health:
Seeds: 0
Leechers: 10
Completed: 612 
Last Checked: 07-02-2018 16:51:29
External Torrent
Update Stats



Images Host

Poster


Watch-Free-HD     Download

Details
Name:Ballavpur Ki Roopkatha 2017 Hindi Untouched 1080p WEBHD x264 AAC - DownloadHD
Description:



Ballavpur Ki Roopkatha 2017 Hindi Untouched 1080p WEBHD x264 AAC - DownloadHD


Format                      : Matroska
Format version              : Version 4 / Version 2
File size                   : 5.29 GiB
Duration                    : 2 h 21 min
Overall bit rate            : 5 360 kb/s
Movie name                  : DownloadHD


Video
ID                          : 1
Format                      : AVC
Format/Info                 : Advanced Video Codec
Format profile              : [email protected]
Format settings, CABAC      : Yes
Format settings, ReFrames   : 1 frame
Format settings, GOP        : M=1, N=25
Codec ID                    : V_MPEG4/ISO/AVC
Duration                    : 2 h 21 min
Bit rate mode               : Constant
Bit rate                    : 5 232 kb/s
Nominal bit rate            : 6 000 kb/s
Width                       : 1 920 pixels
Height                      : 1 080 pixels
Display aspect ratio        : 16:9
Frame rate mode             : Constant
Frame rate                  : 25.000 FPS
Color space                 : YUV
Chroma subsampling          : 4:2:0
Bit depth                   : 8 bits
Scan type                   : Progressive
Bits/(Pixel*Frame)          : 0.101
Stream size                 : 5.17 GiB (98%)
Default                     : Yes
Forced                      : No

Audio
ID                          : 2
Format                      : AAC
Format/Info                 : Advanced Audio Codec
Format profile              : LC
Codec ID                    : A_AAC
Duration                    : 2 h 21 min
Bit rate                    : 125 kb/s
Channel(s)                  : 2 channels
Channel positions           : Front: L R
Sampling rate               : 48.0 kHz
Frame rate                  : 46.875 FPS (1024 spf)
Compression mode            : Lossy
Stream size                 : 127 MiB (2%)
Language                    : Hindi
Default                     : Yes
Forced                      : No

           
Category:Movies > Bollywood
Lang:Hindi
Total Size:5.29 GB
Info Hash:1c80f7fd5eb75191e1f836e7ced567f66f1ab146
Added By:Unknown
Date Added:09-05-2017 12:39:45
Downloads:331

Ratings:Not Yet Rated (Log in to rate it)


Tracker:
udp://tracker.coppersurfer.tk:6969/announce


File List: 


Comments

No comments still posted

Top
Copyright 2018 DownloadHD -|- Page Generated In 1.376398 secs.
-|- RSS Feed -|- Feed Info