Login
Username:
Password:
[Signup]
[Recover Account]


Browse Torrents

Poll


You must be logged in to view polls



Latest Torrents
Madras Cafe (2013)...
- [Size: 1.69 GB]

Crazy Frog - The B...
- [Size: 111.67 MB]

Beyond.The.Sky.201...
- [Size: 16.97 GB]

The.Happytime.Murd...
- [Size: 4.45 GB]

The.Ice.Harvest.20...
- [Size: 6.56 GB]


Torrent Details For "Ami Je Ke Tomar 2017 [Bengali] 720p Untouched WEB-DL x264 AAC Esub- Download [Exclusive]"

Ami Je Ke Tomar 2017 [Bengali] 720p Untouched WEB-DL x264 AAC Esub- Download [Exclusive]

Download this torrent | Magnet Download
Health:
Seeds: 0
Leechers: 7
Completed: 738 
Last Checked: 18-04-2018 23:20:15
External Torrent
Update Stats



Images Host

Poster


Watch-Free-HD     Download

Details
Name:Ami Je Ke Tomar 2017 [Bengali] 720p Untouched WEB-DL x264 AAC Esub- Download [Exclusive]
Description:


BAmi Je Ke Tomar 2017 [Bengali] 720p Untouched WEB-DL x264 AAC Esub- Download


 http://www.hdsector.com


IMDB :  http://www.imdb.com/title/tt6975046/



Director:  Rabi Kinagi


Cast

Stars:  Sayantika Banerjee, Ankush Hazra, Nusrat Jahan |

PLOT:

Ankush plays in this film a young millionaire with a heart of gold. He successfully runs in the business of resorts. His life is anchored by his best friend and business associate, Prachi. Life is all about fun and work and girls, till his car bumps into Esha's cycle. Aditya is instantly enamored by the pretty and innocent girl who seems to have no interest in the flirty, rich bachelor. He ends up giving her a job in his resort even though she can't work in the second shift. As times goes by, Aditya starts sharing his deepest thoughts with Esha. She sees the simple, lovable man behind the successful persona who loves the food made by his aunt. Unwittingly, she loses her heart to this flirty man who confesses to be commitment phobic. These three characters become the best of buddies. Prachi sees the growing chemistry between these two and she keeps her love for Aditya hidden inside her. Turbulence occurs when Prachi's past crops in and misleads their lives in different direction.





Format                      : Matroska
Format version              : Version 4 / Version 2
File size                   : 1.82 GiB
Duration                    : 2 h 9 min
Overall bit rate            : 2 018 kb/s
Movie name ¬† ¬† ¬† ¬† ¬† ¬† ¬† ¬† ¬†: Ami Je Ke Tomar / 2017- [email protected] Download


Video
ID                          : 1
Format                      : AVC
Format/Info                 : Advanced Video Codec
Format profile ¬† ¬† ¬† ¬† ¬† ¬† ¬†: [email protected]
Format settings, CABAC      : Yes
Format settings, ReFrames   : 1 frame
Format settings, GOP        : M=1, N=25
Codec ID                    : V_MPEG4/ISO/AVC
Duration                    : 2 h 9 min
Bit rate mode               : Constant
Bit rate                    : 1 890 kb/s
Nominal bit rate            : 2 000 kb/s
Width                       : 1 280 pixels
Height                      : 720 pixels
Display aspect ratio        : 16:9
Frame rate mode             : Constant
Frame rate                  : 25.000 FPS


Audio
ID                          : 2
Format                      : AAC
Format/Info                 : Advanced Audio Codec
Format profile              : LC
Codec ID                    : A_AAC
Duration                    : 2 h 9 min
Bit rate                    : 125 kb/s
Channel(s)                  : 2 channels
Channel positions           : Front: L R
Sampling rate               : 48.0 kHz
Frame rate                  : 46.875 FPS (1024 spf)
Compression mode            : Lossy
Stream size                 : 116 MiB (6%)
Language                    : Bengali
Default                     : Yes
Forced                      : No

Text
ID                          : 3
Format                      : UTF-8
Codec ID                    : S_TEXT/UTF8
Codec ID/Info               : UTF-8 Plain Text
Duration                    : 2 h 8 min
Bit rate                    : 59 b/s
Count of elements           : 1489
Stream size                 : 55.5 KiB (0%)
Language                    : English
Default                     : Yes
Forced                      : No

 http://www.hdsector.com


             



Category:Movies > Bengali
Lang:Bengali  Bengali
Total Size:1.82 GB
Info Hash:f2206ce3df942770e0ce7a27c18663ac2aa303b3
Added By:Unknown
Date Added:05-09-2017 04:27:30
Downloads:1,506

Ratings:Not Yet Rated (Log in to rate it)


Tracker:
http://ipv4.tracker.harry.lu/announce

This Torrent also has backup trackers
URLSeedersLeechersCompleted
http://ipv4.tracker.harry.lu/announce1722
http://ipv4.tracker.harry.lu:80/announce1722
http://opentracker-milanesi.rhcloud.com/announce176920
http://t.nyaatracker.com/announce012
http://tracker.devil-torrents.pl:80/announce169780
http://tracker.devil-torrents.pl/announce169780
http://open.kickasstracker.com/announce011
http://opentracker-milanesi.rhcloud.com:80/announce176920
http://open.kickasstracker.com:443/announce011
http://opentracker-milanesi.rhcloud.com:443/announce163980
http://t.nyaatracker.com:80/announce010


File List: 


Comments

<< Previous      Next >>
1 - 2

[Report] Posted: 05-09-2017 at 11:44:11
dudu
king of movie


superrrrrrrr :love

[Report] Posted: 06-09-2017 at 00:06:12
r420



cool....
:D

1 - 2
<< Previous      Next >>


Top
Copyright 2018 DownloadHD -|- Page Generated In 0.749377 secs.
-|- RSS Feed -|- Feed Info
1979 Mercedes Benz 280se Automatic For Sale | Trolls: The Beat Goes On!: Season 4 | Original Playstation 4 Ladestation F√úr Zwei Dualshock 4 Contr. Neu/ovp