Login
Username:
Password:
[Signup]
[Recover Account]


Browse Torrents

Poll


You must be logged in to view polls



Latest Torrents
Blood.UK.S01E01E02...
- [Size: 387.18 MB]

Hero No Zero 3 (Ma...
- [Size: 638.09 MB]

Chalbaaz (2018) Sa...
- [Size: 699.80 MB]

Bodhon [2017] Beng...
- [Size: 583.86 MB]

Munni Metric Pass ...
- [Size: 591.77 MB]


Torrent Details For "Chaturango(2017) Zee Bangla Cinema - 1CD - HDTV Rip[x264 - AAC3(2Ch)]"

Chaturango(2017) Zee Bangla Cinema - 1CD - HDTV Rip[x264 - AAC3(2Ch)]

Download this torrent | Magnet Download
Health:
Seeds: 0
Leechers: 3
Completed:
Last Checked: 14-09-2017 15:47:44
External Torrent
Update Stats



Images Host

Poster


Watch-Free-HD     Download

Details
Name:Chaturango(2017) Zee Bangla Cinema - 1CD - HDTV Rip[x264 - AAC3(2Ch)]
Description:
   Chaturango(2017) Zee Bangla Cinema -
1CD - HDTV Rip[x264 - AAC3(2Ch)]  
 




General
Format                                   : Matroska
Format version                           : Version 2
File size                                : 700 MiB
Duration                                 : 2 h 22 min
Overall bit rate                         : 688 kb/s

Video
ID                                       : 1
Format                                   : AVC
Format/Info                              : Advanced Video Codec
Format profile                           : [email protected]
Format settings, CABAC                   : Yes
Format settings, RefFrames               : 4 frames
Codec ID                                 : V_MPEG4/ISO/AVC
Duration                                 : 2 h 22 min
Bit rate                                 : 606 kb/s
Width                                    : 640 pixels
Height                                   : 264 pixels
Display aspect ratio                     : 2.40:1
Frame rate mode                          : Constant
Frame rate                               : 29.970
Color space                              : YUV
Chroma subsampling                       : 4:2:0
Bit depth                                : 8 bits
Scan type                                : Progressive
Bits/(Pixel*Frame)                       : 0.120
Stream size                              : 616 MiB (88%)

Audio
ID                                       : 2
Format                                   : AAC
Format/Info                              : Advanced Audio Codec
Format profile                           : HE-AAC / LC
Codec ID                                 : A_AAC
Duration                                 : 2 h 22 min
Bit rate                                 : 80.0 kb/s
Channel(s)                               : 2 channels
Channel positions                        : Front: L R
Sampling rate                            : 48.0 kHz
Stream size                              : 81.3 MiB (12%)


Thumbnail




Category:Movies > Bengali
Lang:Bengali  Bengali
Total Size:699.73 MB
Info Hash:efcd50140715bc443a4289781861cab37ad72fa5
Added By:Pherarim
Date Added:31-08-2017 08:04:19
Downloads:281

Ratings:Not Yet Rated (Log in to rate it)


Tracker:
udp://9.rarbg.me:2710/announce


File List: 


Comments

No comments still posted

Top
Copyright 2018 DownloadHD -|- Page Generated In 2.394517 secs.
-|- RSS Feed -|- Feed Info
Comparatif : les PC ultraportables et ultrabooks | Gios Reggiseno Art. Perfetto Senza Ferretto | Business analysis techniques for strategic planning