Login
Username:
Password:
[Signup]
[Recover Account]


Browse Torrents

Poll


You must be logged in to view polls



Latest Torrents
Puzzle.2018.HDRip....
- [Size: 1.43 GB]

5 Weddings (2018) ...
- [Size: 698.51 MB]

Crazy.Rich.Asians....
- [Size: 3.20 GB]

BigBoss.S12.Ep41.1...
- [Size: 3.50 GB]

Puzzle.2018.HDRip....
- [Size: 1.43 GB]


Torrent Details For "Manihara(Bengali Movie) - 1CD - HDRip[x264 - AAC3(2Ch)]"

Manihara(Bengali Movie) - 1CD - HDRip[x264 - AAC3(2Ch)]

Download this torrent | Magnet Download
Health:
Seeds: 0
Leechers: 0
Completed:
Last Checked: 10-11-2018 19:05:33
External Torrent
Update Stats



Images Host

Poster


Watch-Free-HD     Download

Details
Name:Manihara(Bengali Movie) - 1CD - HDRip[x264 - AAC3(2Ch)]
Description:
 Manihara(Bengali Movie) - 1CD -
HDRip[x264 - AAC3(2Ch)]
 




General
Format                                   : Matroska
Format version                           : Version 2
File size                                : 700 MiB
Duration                                 : 2 h 36 min

Video
ID                                       : 1
Format                                   : AVC
Format/Info                              : Advanced Video Codec
Format profile                           : [email protected]
Format settings, CABAC                   : Yes
Format settings, RefFrames               : 4 frames
Codec ID                                 : V_MPEG4/ISO/AVC
Duration                                 : 2 h 36 min
Bit rate                                 : 493 kb/s
Width                                    : 640 pixels
Height                                   : 272 pixels
Display aspect ratio                     : 2.35:1
Frame rate mode                          : Constant
Frame rate                               : 25.000 FPS
Color space                              : YUV
Chroma subsampling                       : 4:2:0
Bit depth                                : 8 bits
Scan type                                : Progressive
Bits/(Pixel*Frame)                       : 0.113
Stream size                              : 553 MiB (79%)

Audio
ID                                       : 2
Format                                   : AAC
Format/Info                              : Advanced Audio Codec
Format profile                           : LC
Codec ID                                 : A_AAC
Duration                                 : 2 h 36 min
Bit rate                                 : 128 kb/s
Channel(s)                               : 2 channels
Channel positions                        : Front: L R
Sampling rate                            : 48.0 kHz
Stream size                              : 144 MiB (21%)

Thumbnail




Category:Movies > Bengali
Lang:Bengali  Bengali
Total Size:699.62 MB
Info Hash:f46dc20bf3ccbbf7f5e6a008418d7382742dadf3
Added By:Pherarim
Date Added:29-08-2017 19:13:35
Downloads:469

Ratings:Not Yet Rated (Log in to rate it)


Tracker:
udp://9.rarbg.me:2710/announce


File List: 


Comments

No comments still posted

Top
Copyright 2018 DownloadHD -|- Page Generated In 0.795949 secs.
-|- RSS Feed -|- Feed Info