Login
Username:
Password:
[Signup]
[Recover Account]


Browse Torrents

Poll


You must be logged in to view polls



Latest Torrents
18+ DAD FRIEND (20...
- [Size: 579.60 MB]

Rita Ora - Phoenix...
- [Size: 129.09 MB]

Batti Gul Meter Ch...
- [Size: 1.54 GB]

James.Corden.2018....
- [Size: 627.02 MB]

Stephen.Colbert.20...
- [Size: 649.06 MB]


Torrent Details For "Kung Fu Yoga (2017) 1080p BluRay x264 {Dual Audio} [Hindi DD 5.0 + Eng 2.0] Esub - Ranvijay"

Kung Fu Yoga (2017) 1080p BluRay x264 {Dual Audio} [Hindi DD 5.0 + Eng 2.0] Esub - Ranvijay

Download this torrent | Magnet Download
Health:
Seeds: 0
Leechers: 29
Completed: 392 
Last Checked: 14-04-2018 11:27:40
External Torrent
Update Stats



Images Host

Poster


iMDB
Imdb Picture Title: Gong fu yu jia
Year: 2017
Runtime: 107 minutes
Votes: 2233
Rating: 5.5/10
Language: Mandarin, English
Country: China, India
All Genres: Action, Adventure, Comedy, Mystery
Plot Outline: Two professors team up to locate a lost treasure and embark on an adventure that takes them from a Tibetan ice cave to Dubai to a mountain temple in India.
Director: Stanley Tong
Writing By: Stanley Tong,
Produced By: Jackie Chan,Cici Chen,Jili Chen,Maxine De Vere,Jia Fu,Ruoqing Fu,Ling Hong,Guangming Hou,Qunfei Huang,Peikang La,Zhao Lei,Yiwen Li,Yuan Li,Yingjian Liang,Daljit DJ Parmar,Sailesh Pathak,Mingyu Peng,Jiang Ping,Jianhong Qi,Shimu Qian,Hong Qin,Jonathan Shen,Sunny Sun,Joe Tam,Stanley Tong,Barbie Tung,Iris Wang,Jingwei Wang,Wei Wang,Da Wu,Jianhong Yu,Chuck Zhang,Huixia Zhang,Yong Zhang,Haicheng Zhao,Maofei Zhou,
Music: Nathan Wang
Plot:

Chinese archeology professor Jack (Jackie Chan) teams up with beautiful Indian professor Ashmita and assistant Kyra to locate lost Magadha treasure. In a Tibetan ice cave, they find the remains of the royal army that had vanished together with the treasure, only to be ambushed by Randall (Sonu Sood), the descendent of a rebel army leader. When they free themselves, their next stop is Dubai where a diamond from the ice cave is to be auctioned. After a series of double-crosses and revelations about their past, Jack and his team travel to a mountain temple in India, using the diamond as a key to unlock the real treasure.

- Written by Official

Two professors team up to locate a lost treasure and embark on an adventure that takes them from a Tibetan ice cave to Dubai to a mountain temple in India.

- Written by Anonymous
Cast:
Jackie Chan as Jack
Disha Patani as Ashmita
Amyra Dastur as Kyra
Aarif Rahman as Jones Lee
Sonu Sood as Randall
Eric Tsang as
Yixing Zhang as Xiaoguang
Miya Muqi as Nuomin
Damian Mavis as Mercenary
Fatih Ugurlu as Randall's Man
Trailers:
Kung Fu Yoga Trailer


Watch-Free-HD     Download

Details
Name:Kung Fu Yoga (2017) 1080p BluRay x264 {Dual Audio} [Hindi DD 5.0 + Eng 2.0] Esub - Ranvijay
Description:
Kung Fu Yoga 2017 1080p BluRay x264 [Dual Audio] [Hindi DD 5.0 + Eng 2.0] Esub - Ranvijay

 http://www.sworld4u.ml/



Format                                   : Matroska
Format version                           : Version 4 / Version 2
File size                                : 1.67 GiB
Duration                                 : 1 h 47 min
Overall bit rate                         : 2 228 kb/s

Video
ID                                       : 1
Format                                   : AVC
Format/Info                              : Advanced Video Codec
Format profile                           : [email protected]
Format settings, CABAC                   : Yes
Format settings, RefFrames               : 4 frames
Codec ID                                 : V_MPEG4/ISO/AVC
Duration                                 : 1 h 47 min
Bit rate                                 : 1 812 kb/s
Width                                    : 1 920 pixels
Height                                   : 808 pixels
Stream size                              : 1.35 GiB (81%)
Default                                  : Yes
Forced                                   : No

Audio #1
ID                                       : 2
Format                                   : AC-3
Format/Info                              : Audio Coding 3
Format settings, Endianness              : Big
Codec ID                                 : A_AC3
Duration                                 : 1 h 47 min
Bit rate mode                            : Constant
Bit rate                                 : 224 kb/s
Channel(s)                               : 6 channels
Channel positions                        : Front: L C R, Side: L R, LFE
Sampling rate                            : 48.0 kHz
Frame rate                               : 31.250 FPS (1536 SPF)
Bit depth                                : 16 bits
Compression mode                         : Lossy
Stream size                              : 171 MiB (10%)
Language                                 : Hindi
Service kind                             : Complete Main
Default                                  : Yes
Forced                                   : No

Audio #2
ID                                       : 3
Format                                   : AC-3
Format/Info                              : Audio Coding 3
Format settings, Endianness              : Big
Codec ID                                 : A_AC3
Duration                                 : 1 h 47 min
Bit rate mode                            : Constant
Bit rate                                 : 192 kb/s
Channel(s)                               : 2 channels
Channel positions                        : Front: L R
Sampling rate                            : 48.0 kHz
Frame rate                               : 31.250 FPS (1536 SPF)
Bit depth                                : 16 bits
Compression mode                         : Lossy
Stream size                              : 147 MiB (9%)
Language                                 : English
Service kind                             : Complete Main
Default                                  : No
Forced                                   : No

Text
ID                                       : 4
Format                                   : UTF-8
Codec ID                                 : S_TEXT/UTF8
Codec ID/Info                            : UTF-8 Plain Text
Duration                                 : 1 h 30 min
Bit rate                                 : 52 b/s
Count of elements                        : 1381
Stream size                              : 34.9 KiB (0%)
Language                                 : English
Default                                  : Yes
Forced                                   : No



 Need Only Hindi Audio Visit Here
Thanks To Rohit Sharma For Hindi Audio









Category:Movies > Hollywood Dub
Lang:Hindi
Total Size:1.70 GB
Info Hash:8e9534ce2dac962ddc471b94cff056fec7827ce7
Added By:Shrawankk
Date Added:28-08-2017 22:12:58
Downloads:405

Ratings:Not Yet Rated (Log in to rate it)


Tracker:
http://bigfoot1942.sektori.org:6969/announce

This Torrent also has backup trackers
URLSeedersLeechersCompleted
http://bigfoot1942.sektori.org:6969/announce000
http://tracker2.wasabii.com.tw:6969/announce5459
http://bt.artvid.ru:6969/announce000
http://tracker.opentrackr.org/announce000
http://announce.torrentsmd.com:6969/announce000
http://tracker.trackerfix.com/announce000
http://tracker.opentrackr.org/announce000


File List: 


Comments

No comments still posted

Top
Copyright 2018 DownloadHD -|- Page Generated In 1.987186 secs.
-|- RSS Feed -|- Feed Info
Thriller | Alessandro Nivola Eyed to Star in ‘Sopranos’ Movie as Dickey Moltisanti (Exclusive) | Switched at Birth (2011)