Login
Username:
Password:
[Signup]
[Recover Account]


Browse Torrents

Poll


You must be logged in to view polls



Latest Torrents
18+ DAD FRIEND (20...
- [Size: 579.60 MB]

Rita Ora - Phoenix...
- [Size: 129.09 MB]

Batti Gul Meter Ch...
- [Size: 1.54 GB]

James.Corden.2018....
- [Size: 627.02 MB]

Stephen.Colbert.20...
- [Size: 649.06 MB]


Torrent Details For " ESP - Ekti Rahassayo Galpo (Bengali Movie) - 1CD - HDTV Rip[Xvid - Mp3]"

ESP - Ekti Rahassayo Galpo (Bengali Movie) - 1CD - HDTV Rip[Xvid - Mp3]

Download this torrent | Magnet Download
Health:
Seeds: 0
Leechers: 1
Completed:
Last Checked: 03-11-2018 07:05:14
External Torrent
Update Stats



Images Host

Poster


iMDB
Imdb Picture Title: Ekti Rahasya Galpo
Year: 2013
Runtime: 90 minutes
Votes: 16
Rating: 5.1/10
Language: Bengali
Country: India
All Genres: Thriller
Plot Outline: How can I get this full movie
Director: Shekhar Das
Writing By: Shekhar Das,Shibasish Roy,
Music: Indraadip Dasgupta
Plot:

How can I get this full movie


Cast:
Rituparna Sengupta as
Raima Sen as
Saheb Chatterjee as
Kunal Padhy as
Debdut Ghosh as


Watch-Free-HD     Download

Details
Name: ESP - Ekti Rahassayo Galpo (Bengali Movie) - 1CD - HDTV Rip[Xvid - Mp3]
Description:
  ESP - Ekti Rahassayo Galpo (Bengali Movie) -
1CD - HDTV Rip[Xvid - Mp3]  
 




General
Format                                   : AVI
Format/Info                              : Audio Video Interleave
File size                                : 700 MiB
Duration                                 : 2 h 11 min

Video
ID                                       : 0
Format                                   : MPEG-4 Visual
Format profile                           : Advanced [email protected]
Format settings, BVOP                    : 1
Format settings, QPel                    : No
Format settings, GMC                     : No warppoints
Format settings, Matrix                  : Default (H.263)
Codec ID                                 : XVID
Codec ID/Hint                            : XviD
Duration                                 : 2 h 11 min
Bit rate                                 : 612 kb/s
Width                                    : 640 pixels
Height                                   : 272 pixels
Display aspect ratio                     : 2.35:1
Color space                              : YUV
Chroma subsampling                       : 4:2:0
Bit depth                                : 8 bits
Scan type                                : Progressive
Compression mode                         : Lossy
Bits/(Pixel*Frame)                       : 0.117
Stream size                              : 574 MiB (82%)

Audio
ID                                       : 1
Format                                   : MPEG Audio
Format version                           : Version 1
Format profile                           : Layer 3
Mode                                     : Joint stereo
Mode extension                           : MS Stereo
Codec ID                                 : 55
Codec ID/Hint                            : MP3
Duration                                 : 2 h 11 min
Bit rate mode                            : Constant
Bit rate                                 : 128 kb/s
Channel(s)                               : 2 channels
Sampling rate                            : 48.0 kHz
Compression mode                         : Lossy
Stream size                              : 120 MiB (17%)

Thumbnail




Category:Movies > Bengali
Lang:Bengali  Bengali
Total Size:701.06 MB
Info Hash:cfff5762fe4265c93db656654bb88d2a803e6b16
Added By:Pherarim
Date Added:28-08-2017 16:20:22
Downloads:360

Ratings:Not Yet Rated (Log in to rate it)


Tracker:
udp://9.rarbg.me:2710/announce


File List: 


Comments

No comments still posted

Top
Copyright 2018 DownloadHD -|- Page Generated In 0.704442 secs.
-|- RSS Feed -|- Feed Info
Kutools for Excel 18 00 Multilingual Patch | Marsupilami (2009) | our blog