Login
Username:
Password:
[Signup]
[Recover Account]


Browse Torrents

Poll


You must be logged in to view polls



Latest Torrents
Blood.UK.S01E01E02...
- [Size: 387.18 MB]

Hero No Zero 3 (Ma...
- [Size: 638.09 MB]

Chalbaaz (2018) Sa...
- [Size: 699.80 MB]

Bodhon [2017] Beng...
- [Size: 583.86 MB]

Munni Metric Pass ...
- [Size: 591.77 MB]


Torrent Details For "The.Russians.Are.Coming.1966.1080p.BluRay.X264-AMIABLE"

The.Russians.Are.Coming.1966.1080p.BluRay.X264-AMIABLE

Download this torrent | Magnet Download
Health:
Seeds: 0
Leechers: 4
Completed:
Last Checked: 10-12-2017 13:47:38
External Torrent
Update Stats



Images Host

Poster


iMDB
Imdb Picture Original Title: The Russians Are Coming the Russians Are Coming
Title: The Russians Are Coming! The Russians Are Coming!
Year: 1966
Runtime: 126 minutes
Votes: 6580
Rating: 7.1/10
Language: English, Russian
Country: USA
All Genres: Comedy, War
Plot Outline: Without hostile intent, a Soviet sub runs aground off New England. Men are sent for a boat, but many villagers go into a tizzy, risking bloodshed.
Tagline: It's A Plot!... to make the world die laughing!!
Director: Norman Jewison
Writing By: Nathaniel Benchley,William Rose,
Produced By: Norman Jewison,Walter Mirisch,
Music: Johnny Mandel
Plot:

In the Cold War, when the captain of a Russian submarine comes too close to the Gloucester Island in Massachusetts to give a look at America, the submarine gets stranded. A nine-man team commanded by Lieutenant Rozanov goes onshore to search a motor boat to release the submarine and arrives at the summer house of the New Yorker writer Walt Whittaker that is spending the weekend with his family in Gloucester. When he realizes that they are Russians, he believes that it is an invasion. Soon the information leaks, leading hysteria and paranoia along the inhabitants of the small village.

- Written by Claudio Carvalho, Rio de Janeiro, Brazil

When a Soviet submarine captain comes up for a look at America (off the coast of a small island in Massachusetts) he runs aground. He sends his two English speaking crewmen to procure a boat with enough power to pull them off. The 2 English speakers, along with 7 other Russian sailors, don't exactly blend in and the town is convinced that they are being invaded.

- Written by John Vogel <[email protected]>

Without hostile intent, a Soviet sub runs aground off New England. Men are sent for a boat, but many villagers go into a tizzy, risking bloodshed.

- Written by Anonymous
Cast:
Carl Reiner as Walt Whittaker
Eva Marie Saint as Elspeth Whittaker
Alan Arkin as Lt. Rozanov
Brian Keith as Police Chief Link Mattocks
Jonathan Winters as Norman Jonas
Paul Ford as Fendall Hawkins
Theodore Bikel as The Russian Captain
Tessie O'Shea as Alice Foss
John Phillip Law as Alexei Kolchin
Ben Blue as Luther Grilk


Watch-Free-HD     Download

Details
Name:The.Russians.Are.Coming.1966.1080p.BluRay.X264-AMIABLE
Description:
MediaInfo

Video
ID                                       : 1
Format                                   : AVC
Format/Info                              : Advanced Video Codec
Format profile                           : [email protected]
Format settings, CABAC                   : Yes
Format settings, ReFrames                : 5 frames
Codec ID                                 : V_MPEG4/ISO/AVC
Duration                                 : 2 h 5 min
Bit rate                                 : 9 690 kb/s
Width                                    : 1 920 pixels
Height                                   : 800 pixels
Display aspect ratio                     : 2.40:1
Frame rate mode                          : Constant
Frame rate                               : 23.976 (24000/1001) FPS
Color space                              : YUV
Chroma subsampling                       : 4:2:0
Bit depth                                : 8 bits
Scan type                                : Progressive
Bits/(Pixel*Frame)                       : 0.263
Stream size                              : 8.32 GiB (85%)
Writing library                          : x264 core 144 r2525 40bb568
Encoding settings                        : cabac=1 / ref=5 / deblock=1:-3:-3 / analyse=0x3:0x113 / me=umh / subme=8 / psy=1 / psy_rd=1.00:0.00 / mixed_ref=1 / me_range=16 / chroma_me=1 / trellis=1 / 8x8dct=1 / cqm=0 / deadzone=21,11 / fast_pskip=1 / chroma_qp_offset=-2 / threads=12 / lookahead_threads=2 / sliced_threads=0 / nr=0 / decimate=1 / interlaced=0 / bluray_compat=0 / constrained_intra=0 / bframes=3 / b_pyramid=2 / b_adapt=2 / b_bias=0 / direct=3 / weightb=1 / open_gop=0 / weightp=2 / keyint=240 / keyint_min=24 / scenecut=40 / intra_refresh=0 / rc_lookahead=50 / rc=2pass / mbtree=1 / bitrate=9690 / ratetol=1.0 / qcomp=0.60 / qpmin=0 / qpmax=69 / qpstep=4 / cplxblur=20.0 / qblur=0.5 / ip_ratio=1.40 / aq=1:1.00
Language                                 : English
Default                                  : Yes
Forced                                   : No

Audio
ID                                       : 2
Format                                   : DTS
Format/Info                              : Digital Theater Systems
Mode                                     : 16
Format settings, Endianness              : Big
Codec ID                                 : A_DTS
Duration                                 : 2 h 5 min
Bit rate mode                            : Constant
Bit rate                                 : 1 509 kb/s
Channel(s)                               : 2 channels
Channel positions                        : Front: L R
Sampling rate                            : 48.0 kHz
Frame rate                               : 93.750 FPS (512 spf)
Bit depth                                : 24 bits
Compression mode                         : Lossy
Stream size                              : 1.33 GiB (13%)
Language                                 : English
Default                                  : Yes

 http://imagecurl.com/viewer.ph...1206100.png[/center]
Category:Movies > 1080P Bluray
Lang:English  English
Total Size:9.84 GB
Info Hash:26910103b4a915f5f30fb70da0db3be643fa6293
Added By:Agent47
Date Added:27-08-2017 15:22:40
Downloads:102

Ratings:Not Yet Rated (Log in to rate it)


Tracker:
http://tracker.trackerfix.com:80/announce


File List: 


Comments

No comments still posted

Top
Copyright 2018 DownloadHD -|- Page Generated In 0.286854 secs.
-|- RSS Feed -|- Feed Info
Vedi Prodotto | Watch now | Night Moves