Login
Username:
Password:
[Signup]
[Recover Account]


Browse Torrents

Poll


You must be logged in to view polls



Latest Torrents
Mom.S06E11.HDTV.x2...
- [Size: 142.47 MB]

Mom.S06E11.720p.HD...
- [Size: 496.39 MB]

Mom.S06E11.720p.HD...
- [Size: 529.14 MB]

Supernatural.S14E0...
- [Size: 149.74 MB]

The.Apprentice.UK....
- [Size: 806.65 MB]


Torrent Details For "Play.Misty.for.Me.1971.1080p.BluRay.X264-AMIABLE"

Play.Misty.for.Me.1971.1080p.BluRay.X264-AMIABLE

Download this torrent | Magnet Download
Health:
Seeds: 0
Leechers: 18
Completed:
Last Checked: 23-08-2018 23:40:40
External Torrent
Update Stats



Images Host

Poster


iMDB
Imdb Picture Title: Play Misty for Me
Year: 1971
Runtime: 102 minutes
Votes: 20635
Rating: 7.0/10
Language: English
Country: USA
All Genres: Thriller
Plot Outline: A brief fling between a male disc jockey and an obsessed female fan takes a frightening, and perhaps even deadly turn when another woman enters the picture.
Tagline: ...an invitation to terror...
Director: Clint Eastwood
Writing By: Jo Heims,Dean Riesner,Jo Heims,
Produced By: Robert Daley,Bob Larson,Jennings Lang,
Music: Dee Barton
Plot:

Disc jockey Dave Garver attracts the amorous attentions of a demented fan named Evelyn Draper. Evelyn lets Dave pick her up at a bar; later at her apartment Evelyn admits that she is the cooing caller who repeatedly asks Dave to play the Erroll Garner classic "Misty." From then on, the film is a lesson in how one casual date can turn your whole life around. Evelyn stalks Dave everywhere, ruins his business lunch, assaults his maid, mutilates his house and all of his belongings, and finally threatens to butcher his girlfriend Tobie Williams. You'll never be able to hear that song again without looking over your shoulder.

- Written by alfiehitchie

In the city of Carmel, the popular disc-jockey David Garver has one night stand with Evelyn Draper, a strange he met in a bar after his show. The woman, indeed a deranged obsessed fan, stalks David and threatens his life, his girl-friend Tobie Williams, his friends and even his job.

- Written by Claudio Carvalho, Rio de Janeiro, Brazil

A brief fling between a male disc jockey and an obsessed female fan takes a frightening, and perhaps even deadly turn when another woman enters the picture.

- Written by [email protected]
Cast:
Clint Eastwood as Dave
Jessica Walter as Evelyn
Donna Mills as Tobie
John Larch as Sgt. McCallum
Jack Ging as Frank
Irene Hervey as Madge
James McEachin as Al Monte
Clarice Taylor as Birdie
Don Siegel as Murphy
Duke Everts as Jay Jay


Watch-Free-HD     Download

Details
Name:Play.Misty.for.Me.1971.1080p.BluRay.X264-AMIABLE
Description:
MediaInfo

Video
ID                                       : 1
Format                                   : AVC
Format/Info                              : Advanced Video Codec
Format profile                           : [email protected]
Format settings, CABAC                   : Yes
Format settings, ReFrames                : 4 frames
Codec ID                                 : V_MPEG4/ISO/AVC
Duration                                 : 1 h 42 min
Bit rate                                 : 9 632 kb/s
Width                                    : 1 920 pixels
Height                                   : 1 040 pixels
Display aspect ratio                     : 1.85:1
Frame rate mode                          : Constant
Frame rate                               : 23.976 (24000/1001) FPS
Color space                              : YUV
Chroma subsampling                       : 4:2:0
Bit depth                                : 8 bits
Scan type                                : Progressive
Bits/(Pixel*Frame)                       : 0.201
Stream size                              : 6.71 GiB (84%)
Writing library                          : x264 core 142 r2453 ea0ca51
Encoding settings                        : cabac=1 / ref=4 / deblock=1:-3:-3 / analyse=0x3:0x113 / me=umh / subme=8 / psy=1 / psy_rd=1.00:0.00 / mixed_ref=1 / me_range=16 / chroma_me=1 / trellis=1 / 8x8dct=1 / cqm=0 / deadzone=21,11 / fast_pskip=1 / chroma_qp_offset=-2 / threads=12 / lookahead_threads=2 / sliced_threads=0 / nr=0 / decimate=1 / interlaced=0 / bluray_compat=0 / constrained_intra=0 / bframes=3 / b_pyramid=2 / b_adapt=2 / b_bias=0 / direct=3 / weightb=1 / open_gop=0 / weightp=2 / keyint=240 / keyint_min=24 / scenecut=40 / intra_refresh=0 / rc_lookahead=50 / rc=2pass / mbtree=1 / bitrate=9632 / ratetol=1.0 / qcomp=0.60 / qpmin=0 / qpmax=69 / qpstep=4 / cplxblur=20.0 / qblur=0.5 / ip_ratio=1.40 / aq=1:1.00
Language                                 : English
Default                                  : Yes
Forced                                   : No

Audio
ID                                       : 2
Format                                   : DTS
Format/Info                              : Digital Theater Systems
Mode                                     : 16
Format settings, Endianness              : Big
Codec ID                                 : A_DTS
Duration                                 : 1 h 42 min
Bit rate mode                            : Constant
Bit rate                                 : 1 509 kb/s
Channel(s)                               : 2 channels
Channel positions                        : Front: L R
Sampling rate                            : 48.0 kHz
Frame rate                               : 93.750 FPS (512 spf)
Bit depth                                : 24 bits
Compression mode                         : Lossy
Stream size                              : 1.08 GiB (14%)
Language                                 : English
Default                                  : Yes

 http://imagecurl.com/viewer.ph...1440277.png[/center]
Category:Movies > 1080P Bluray
Lang:English  English
Total Size:7.95 GB
Info Hash:f331d36070f3bf0928f53437b9be1966ee49a80c
Added By:Agent47
Date Added:27-08-2017 15:13:32
Downloads:48

Ratings:Not Yet Rated (Log in to rate it)


Tracker:
http://tracker.trackerfix.com:80/announce


File List: 


Comments

No comments still posted

Top
Copyright 2018 DownloadHD -|- Page Generated In 0.314457 secs.
-|- RSS Feed -|- Feed Info
Nawiedzeni / Haunted Hathaways | The Road Not Taken | Metallbearbeitung & Schlosserei