Login
Username:
Password:
[Signup]
[Recover Account]


Browse Torrents

Poll


You must be logged in to view polls



Latest Torrents
Master.of.Arms.S01...
- [Size: 983.73 MB]

Master.of.Arms.S01...
- [Size: 326.47 MB]

Z.Nation.S05E07.WE...
- [Size: 601.09 MB]

Z.Nation.S05E07.72...
- [Size: 820.80 MB]

Dead Awake 2010 x2...
- [Size: 593.33 MB]


Torrent Details For "Heaven.and.Earth.1993.1080p.BluRay.X264-AMIABLE"

Heaven.and.Earth.1993.1080p.BluRay.X264-AMIABLE

Download this torrent | Magnet Download
Health:
Seeds: 0
Leechers: 10
Completed:
Last Checked: 24-12-2017 05:51:34
External Torrent
Update Stats



Images Host

Poster


iMDB
Imdb Picture Original Title: Heaven & Earth
Title: Himmel och jord
Year: 1993
Runtime: 140 minutes
Votes: 11361
Rating: 6.8/10
Language: English, Vietnamese
Country: France, USA
All Genres: Action, Biography, Drama, History, War
Plot Outline: The final movie in Oliver Stone's Vietnam trilogy follows the true story of a Vietnamese village girl who survives a life of suffering and hardship during and after the Vietnam war. As a ...
Tagline: Lasting victories are won in the heart.
Director: Oliver Stone
Writing By: Le Ly Hayslip,Jay Wurts,Le Ly Hayslip,James Hayslip,Oliver Stone,
Produced By: Risa Bramon Garcia,A. Kitman Ho,Mario Kassar,Robert Kline,Arnon Milchan,Christina Rodgers,Richard Rutowski,Oliver Stone,Clayton Townsend,
Music: Kitarô
Plot:

The final movie in Oliver Stone's Vietnam trilogy follows the true story of a Vietnamese village girl who survives a life of suffering and hardship during and after the Vietnam war. As a freedom fighter, a hustler, young mother, a sometime prostitute, and the wife of a US. marine, the girl's relationships with men suggests an analogy of Vietnam as Woman and the U.S. as Man.

- Written by Keith Loh <[email protected]>

Fleeing the violence of the Viet Cong, Le Ly leaves her farming village with her mother for Saigon. After disgracing herself by becoming pregnant with her new master's child, she moves in with her sister and, through hustling the American troops, meets up with Steve Butler. They become lovers and, encouraged by his promises, she agrees to return with him to the strange but wonderful land of "America".

- Written by Jonathan Ridsdale <[email protected]>
Cast:
Haing S. Ngor as Papa
Bussaro Sanruck as Le Ly - Age 5
Supak Pititam as Buddhist Monk
Joan Chen as Mama
Thuan K. Nguyen as Uncle Luc
Hiep Thi Le as Le Ly
Lan Nguyen Calderon as Ba
Thuan Le as Kim
Dustin Nguyen as Sau
Mai Le Ho as Hai


Watch-Free-HD     Download

Details
Name:Heaven.and.Earth.1993.1080p.BluRay.X264-AMIABLE
Description:
MediaInfo

Video
ID                                       : 1
Format                                   : AVC
Format/Info                              : Advanced Video Codec
Format profile                           : [email protected]
Format settings, CABAC                   : Yes
Format settings, ReFrames                : 5 frames
Codec ID                                 : V_MPEG4/ISO/AVC
Duration                                 : 2 h 21 min
Bit rate                                 : 9 552 kb/s
Width                                    : 1 920 pixels
Height                                   : 800 pixels
Display aspect ratio                     : 2.40:1
Frame rate mode                          : Constant
Frame rate                               : 23.976 (24000/1001) FPS
Color space                              : YUV
Chroma subsampling                       : 4:2:0
Bit depth                                : 8 bits
Scan type                                : Progressive
Bits/(Pixel*Frame)                       : 0.259
Stream size                              : 9.22 GiB (84%)
Writing library                          : x264 core 142 r2491 24e4fed
Encoding settings                        : cabac=1 / ref=5 / deblock=1:-3:-3 / analyse=0x3:0x113 / me=umh / subme=8 / psy=1 / psy_rd=1.00:0.00 / mixed_ref=1 / me_range=16 / chroma_me=1 / trellis=1 / 8x8dct=1 / cqm=0 / deadzone=21,11 / fast_pskip=1 / chroma_qp_offset=-2 / threads=24 / lookahead_threads=4 / sliced_threads=0 / nr=0 / decimate=1 / interlaced=0 / bluray_compat=0 / constrained_intra=0 / bframes=3 / b_pyramid=2 / b_adapt=2 / b_bias=0 / direct=3 / weightb=1 / open_gop=0 / weightp=2 / keyint=240 / keyint_min=24 / scenecut=40 / intra_refresh=0 / rc_lookahead=50 / rc=2pass / mbtree=1 / bitrate=9552 / ratetol=1.0 / qcomp=0.60 / qpmin=0 / qpmax=69 / qpstep=4 / cplxblur=20.0 / qblur=0.5 / ip_ratio=1.40 / aq=1:1.00
Language                                 : English
Default                                  : Yes
Forced                                   : No

Audio
ID                                       : 2
Format                                   : DTS
Format/Info                              : Digital Theater Systems
Mode                                     : 16
Format settings, Endianness              : Big
Codec ID                                 : A_DTS
Duration                                 : 2 h 21 min
Bit rate mode                            : Constant
Bit rate                                 : 1 509 kb/s
Channel(s)                               : 6 channels
Channel positions                        : Front: L C R, Side: L R, LFE
Sampling rate                            : 48.0 kHz
Frame rate                               : 93.750 FPS (512 spf)
Bit depth                                : 24 bits
Compression mode                         : Lossy
Stream size                              : 1.49 GiB (14%)
Language                                 : English
Default                                  : Yes

 http://imagecurl.com/viewer.ph...1810176.png[/center]
Category:Movies > 1080P Bluray
Lang:English  English
Total Size:10.93 GB
Info Hash:f77735b53787cb576c4eeac4a74ace8b712e8ac6
Added By:Agent47
Date Added:27-08-2017 15:04:28
Downloads:54

Ratings:Not Yet Rated (Log in to rate it)


Tracker:
http://tracker.trackerfix.com:80/announce


File List: 


Comments

No comments still posted

Top
Copyright 2018 DownloadHD -|- Page Generated In 0.244440 secs.
-|- RSS Feed -|- Feed Info
Вайолет Эвергарден / Violet Evergarden:Kitto Koi wo Shiru Hi ga Kuru no Darou (2018) BDRip 1080p | AniFilm | Battisti Inediti mp3 | Để Anh Một Mình