Login
Username:
Password:
[Signup]
[Recover Account]


Browse Torrents

Poll


You must be logged in to view polls



Latest Torrents
Villain (2018) Ben...
- [Size: 558.96 MB]

Villain (2018) Ben...
- [Size: 1.49 GB]

Mirzapur (2018) Se...
- [Size: 3.39 GB]

The.Daily.Show.201...
- [Size: 311.67 MB]

How.to.Get.Away.wi...
- [Size: 1.17 GB]


Torrent Details For "Security 2017 1080p BluRay x264 AAC 5.1-Download"

Security 2017 1080p BluRay x264 AAC 5.1-Download

Download this torrent | Magnet Download
Health:
Seeds: 0
Leechers: 5
Completed:
Last Checked: 02-05-2018 11:39:47
External Torrent
Update Stats



Images Host

Poster


Watch-Free-HD     Download

Details
Name:Security 2017 1080p BluRay x264 AAC 5.1-Download
Description:
Security 2017 1080p BluRay x264 AAC 5.1-Download


Format                      : Matroska
Format version              : Version 4 / Version 2
File size                   : 2.15 GiB
Duration                    : 1 h 31 min
Overall bit rate            : 3 344 kb/s
Movie name                  : Security.2017-Download


Video
ID                          : 1
Format                      : AVC
Format/Info                 : Advanced Video Codec
Format profile              : [email protected]
Format settings, CABAC      : Yes
Format settings, RefFrames  : 5 frames
Codec ID                    : V_MPEG4/ISO/AVC
Duration                    : 1 h 31 min
Bit rate                    : 3 000 kb/s
Width                       : 1 920 pixels
Height                      : 800 pixels
Display aspect ratio        : 2.40:1
Frame rate mode             : Constant
Frame rate                  : 23.976 (24000/1001) FPS


Audio
ID                          : 2
Format                      : AAC
Format/Info                 : Advanced Audio Codec
Format profile              : LC
Codec ID                    : A_AAC
Duration                    : 1 h 31 min
Bit rate                    : 320 kb/s
Channel(s)                  : 6 channels
Channel positions           : Front: L C R, Side: L R, LFE
Sampling rate               : 48.0 kHz
Frame rate                  : 46.875 FPS (1024 SPF)
Compression mode            : Lossy
Delay relative to video     : -21 ms
Stream size                 : 210 MiB (10%)
Title                       : Surround
Language                    : English
Default                     : Yes
Forced                      : No

Text #1
ID                          : 3
Format                      : UTF-8
Codec ID                    : S_TEXT/UTF8
Codec ID/Info               : UTF-8 Plain Text
Duration                    : 1 h 28 min
Bit rate                    : 53 b/s
Count of elements           : 1101
Stream size                 : 34.2 KiB (0%)
Language                    : English
Default                     : No
Forced                      : No


Text #3
ID                          : 5
Format                      : PGS
Muxing mode                 : zlib
Codec ID                    : S_HDMV/PGS
Codec ID/Info               : Picture based subtitle format used on BDs/HD-DVDs
Duration                    : 1 h 26 min
Bit rate                    : 30.2 kb/s
Count of elements           : 1589
Stream size                 : 18.6 MiB (1%)
Title                       : French-PGS
Language                    : French
Default                     : No
Forced                      : No


Menu
00:00:00.000                : en:Chapter 01
00:17:03.105                : en:Chapter 02
00:29:17.088                : en:Chapter 03
00:40:00.189                : en:Chapter 04
00:53:50.101                : en:Chapter 05
01:06:05.252                : en:Chapter 06
01:18:38.338                : en:Chapter 07
01:27:50.848                : en:Chapter 08

         
Category:Movies > 1080P Bluray
Lang:English  English
Total Size:2.15 GB
Info Hash:44b8885d3029cf822d4c9dfdfe51e6cbbd97d430
Added By:Unknown
Date Added:26-08-2017 13:35:41
Downloads:190

Ratings:Not Yet Rated (Log in to rate it)


Tracker:
http://ipv4.tracker.harry.lu/announce

This Torrent also has backup trackers
URLSeedersLeechersCompleted
http://ipv4.tracker.harry.lu/announce022
http://ipv4.tracker.harry.lu:80/announce022
http://opentracker-milanesi.rhcloud.com/announce020
http://t.nyaatracker.com/announce010
http://tracker.devil-torrents.pl:80/announce020
http://tracker.devil-torrents.pl/announce020
http://open.kickasstracker.com/announce010
http://opentracker-milanesi.rhcloud.com:80/announce020
http://open.kickasstracker.com:443/announce010
http://opentracker-milanesi.rhcloud.com:443/announce020
http://t.nyaatracker.com:80/announce010


File List: 


Comments

No comments still posted

Top
Copyright 2018 DownloadHD -|- Page Generated In 0.405233 secs.
-|- RSS Feed -|- Feed Info