Login
Username:
Password:
[Signup]
[Recover Account]


Browse Torrents

Poll


You must be logged in to view polls



Latest Torrents
Tosh.0.S10E20.WEB....
- [Size: 201.90 MB]

Tigers (2018) Hind...
- [Size: 698.80 MB]

Real.Country.S01E0...
- [Size: 579.76 MB]

Padmaavat.2018 72...
- [Size: 2.99 GB]

TMZ.on.TV.2018.11....
- [Size: 160.78 MB]


Torrent Details For "Rajmahal 3 (Dhilluku Dhuddu) Hindi Dubbed - 2CD - Web Rip[Xvid - Mp3] "

Rajmahal 3 (Dhilluku Dhuddu) Hindi Dubbed - 2CD - Web Rip[Xvid - Mp3]

Download this torrent | Magnet Download
Health:
Seeds: 0
Leechers: 3
Completed:
Last Checked: 31-08-2017 09:34:58
External Torrent
Update Stats



Images Host

Poster


Watch-Free-HD     Download

Details
Name:Rajmahal 3 (Dhilluku Dhuddu) Hindi Dubbed - 2CD - Web Rip[Xvid - Mp3]
Description:
   Rajmahal 3 (Dhilluku Dhuddu) Hindi Dubbed -
2CD - Web Rip[Xvid - Mp3]    
 




General
Format                                   : AVI
Format/Info                              : Audio Video Interleave
File size                                : 1.40 GiB
Duration                                 : 2 h 26 min

Video
ID                                       : 0
Format                                   : MPEG-4 Visual
Format profile                           : Advanced [email protected]
Format settings, BVOP                    : 1
Format settings, QPel                    : No
Format settings, GMC                     : No warppoints
Format settings, Matrix                  : Default (H.263)
Codec ID                                 : XVID
Duration                                 : 2 h 26 min
Bit rate                                 : 1 232 kb/s
Width                                    : 720 pixels
Height                                   : 304 pixels
Display aspect ratio                     : 2.35:1
Frame rate                               : 25.000 FPS
Color space                              : YUV
Chroma subsampling                       : 4:2:0
Bit depth                                : 8 bits
Scan type                                : Progressive
Compression mode                         : Lossy
Bits/(Pixel*Frame)                       : 0.225
Stream size                              : 1.26 GiB (90%)

Audio
ID                                       : 1
Format                                   : MPEG Audio
Format version                           : Version 1
Format profile                           : Layer 3
Mode                                     : Joint stereo
Mode extension                           : MS Stereo
Codec ID                                 : 55
Codec ID/Hint                            : MP3
Duration                                 : 2 h 26 min
Bit rate mode                            : Constant
Bit rate                                 : 128 kb/s
Channel(s)                               : 2 channels
Sampling rate                            : 48.0 kHz
Stream size                              : 134 MiB (9%)
Thumbnail




Category:Movies > South Dub
Lang:Hindi
Total Size:1.40 GB
Info Hash:a5d304aed6fb8b234335112b4c076e9b4dff627e
Added By:Pherarim
Date Added:20-08-2017 06:44:49
Downloads:476

Ratings:Not Yet Rated (Log in to rate it)


Tracker:
udp://9.rarbg.me:2710/announce


File List: 


Comments

No comments still posted

Top
Copyright 2018 DownloadHD -|- Page Generated In 0.810826 secs.
-|- RSS Feed -|- Feed Info
Diamine Bottled Shimmering Glitter Ink 50ml For Fountain Pens - 32 Colours! | Люк Кейдж / Luke Cage [02х01-08 из 13] (2018) WEBRip 720p | Profix Media | Stranger Things 2 Poster