Login
Username:
Password:
[Signup]
[Recover Account]


Browse Torrents

Poll


You must be logged in to view polls



Latest Torrents
Tigers 2018 Hindi ...
- [Size: 836.75 MB]

WWE Smackdown Live...
- [Size: 272.04 MB]

WWE Smackdown Live...
- [Size: 725.36 MB]

Nocturnal Animals ...
- [Size: 4.99 GB]

Tosh.0.S10E20.WEB....
- [Size: 201.90 MB]


Torrent Details For "Timebomb.1991.1080p.BluRay.x264.DTS-FGT"

Timebomb.1991.1080p.BluRay.x264.DTS-FGT

Download this torrent | Magnet Download
Health:
Seeds: 0
Leechers: 12
Completed:
Last Checked: 13-04-2018 11:17:34
External Torrent
Update Stats



Images Host

Poster


iMDB
Imdb Picture Title: Timebomb
Year: 1991
Runtime: 96 minutes
Votes: 1194
Rating: 5.5/10
Language: English, Hungarian
Country: USA
All Genres: Action, Drama, Sci-Fi, Thriller
Plot Outline: When someone tries to murder watchmaker Eddy Kay, the incident triggers a barrage of nightmares and flashbacks into a past that isn't his own. Fearing for his sanity, Eddy contacts ...
Tagline: Eddy Kay is wired to explode
Director: Avi Nesher
Writing By: Avi Nesher,
Produced By: Raffaella De Laurentiis,Hester Hargett,Andrew G. La Marca,Mike Petzold,
Music: Patrick Leonard
Plot:

When someone tries to murder watchmaker Eddy Kay, the incident triggers a barrage of nightmares and flashbacks into a past that isn't his own. Fearing for his sanity, Eddy contacts psychiatrist Dr. Anna Nolmar for help. Anna thinks he's hallucinating until another attack proves the dangers are all too real. The two of them go on the run, trying to discover the truth about Eddie's past and true identity before it kills them.

- Written by Marg Baskin <[email protected]>

After watchmaker, Eddie Kay saves someone from a fire, he appears on the evening news. A man working for the government, sees him and recognizes him. He then informs his superior and he then tries to kill him but misses. The police doesn't believe that someone is out to kill him. And when has some strange images that he can't account for, he goes to a psychotherapist. After being confined in a hospital the people who have been trying to kill him make another attempt but this Eddie manages to kill a couple of them. So he and the doctor try to ellude his pursuers while he tries to figure out what has been happening to him.

- Written by [email protected]
Cast:
Michael Biehn as Eddy Kay / Oliver Dykstra
Patsy Kensit as Dr. Anna Nolmar
Tracy Scoggins as Ms. Blue
Robert Culp as Mr. Phillips
Richard Jordan as Col. Taylor
Raymond St. Jacques as Det. Sanchez
Billy Blanks as Mr. Brown
Jim Maniaci as Mr. Grey
Steven J. Oliver as Mr. Redd
Carlos Palomino as Mr. Green


Watch-Free-HD     Download

Details
Name:Timebomb.1991.1080p.BluRay.x264.DTS-FGT
Description:
MediaInfo

Video
ID                                       : 1
Format                                   : AVC
Format/Info                              : Advanced Video Codec
Format profile                           : [email protected]
Format settings, CABAC                   : Yes
Format settings, ReFrames                : 4 frames
Codec ID                                 : V_MPEG4/ISO/AVC
Duration                                 : 1 h 36 min
Bit rate                                 : 10.9 Mb/s
Nominal bit rate                         : 11.5 Mb/s
Width                                    : 1 920 pixels
Height                                   : 1 036 pixels
Display aspect ratio                     : 1.85:1
Frame rate mode                          : Constant
Frame rate                               : 23.976 (24000/1001) FPS
Color space                              : YUV
Chroma subsampling                       : 4:2:0
Bit depth                                : 8 bits
Scan type                                : Progressive
Bits/(Pixel*Frame)                       : 0.229
Stream size                              : 7.32 GiB (86%)
Title                                    : Timebomb.1991.1080p.BluRay.x264.DTS-FGT
Writing library                          : x264 core 152 r2851M ba24899
Encoding settings                        : cabac=1 / ref=4 / deblock=1:-2:-2 / analyse=0x3:0x113 / me=umh / subme=7 / psy=1 / psy_rd=1.00:0.15 / mixed_ref=1 / me_range=16 / chroma_me=1 / trellis=1 / 8x8dct=1 / cqm=0 / deadzone=21,11 / fast_pskip=1 / chroma_qp_offset=-3 / threads=24 / lookahead_threads=3 / sliced_threads=0 / nr=0 / decimate=1 / interlaced=0 / bluray_compat=0 / constrained_intra=0 / bframes=3 / b_pyramid=2 / b_adapt=2 / b_bias=0 / direct=3 / weightb=1 / open_gop=0 / weightp=2 / keyint=250 / keyint_min=25 / scenecut=40 / intra_refresh=0 / rc_lookahead=50 / rc=abr / mbtree=1 / bitrate=11500 / ratetol=1.0 / qcomp=0.60 / qpmin=0 / qpmax=69 / qpstep=4 / vbv_maxrate=31250 / vbv_bufsize=31250 / nal_hrd=none / filler=0 / ip_ratio=1.40 / aq=1:1.00
Language                                 : English
Default                                  : Yes
Forced                                   : No

Audio
ID                                       : 2
Format                                   : DTS
Format/Info                              : Digital Theater Systems
Mode                                     : 16
Format settings, Endianness              : Big
Codec ID                                 : A_DTS
Duration                                 : 1 h 36 min
Bit rate mode                            : Constant
Bit rate                                 : 1 509 kb/s
Channel(s)                               : 2 channels
Channel positions                        : Front: L R
Sampling rate                            : 48.0 kHz
Frame rate                               : 93.750 FPS (512 spf)
Bit depth                                : 24 bits
Compression mode                         : Lossy
Stream size                              : 1.01 GiB (12%)
Title                                    : Timebomb.1991.1080p.BluRay.x264.DTS-FGT
Language                                 : English
Default                                  : Yes
Forced                                   : No

Text
ID                                       : 3
Format                                   : UTF-8
Codec ID                                 : S_TEXT/UTF8
Codec ID/Info                            : UTF-8 Plain Text
Language                                 : English
Default                                  : Yes
 
Category:Movies > 1080P Bluray
Lang:English  English
Total Size:8.51 GB
Info Hash:e34d52ea49bb77c6aa059575c7cc6c51a05948dd
Added By:Agent47
Date Added:18-08-2017 18:16:53
Downloads:62

Ratings:Not Yet Rated (Log in to rate it)


Tracker:
http://tracker.trackerfix.com:80/announce


File List: 


Comments

No comments still posted

Top
Copyright 2018 DownloadHD -|- Page Generated In 0.175004 secs.
-|- RSS Feed -|- Feed Info
El ministerio del tiempo 1x03 El ministerio del tiempo 1x03 | Champions FRENCH WEBRIP 2018 | Castlevania (4)