Login
Username:
Password:
[Signup]
[Recover Account]


Browse Torrents

Poll


You must be logged in to view polls



Latest Torrents
Nightshift.2018.HD...
- [Size: 706.57 MB]

Jimmy.Fallon.2018....
- [Size: 579.69 MB]

Jimmy.Fallon.2018....
- [Size: 582.40 MB]

The.Voice.S15E25.X...
- [Size: 1.51 GB]

The.Voice.S15E25.W...
- [Size: 1.17 GB]


Torrent Details For "Saheb Biwi Aur Gangster ( 2011 ) Hindi 720p DVDRip x264 AAC { TaRa }.mkv"

Saheb Biwi Aur Gangster ( 2011 ) Hindi 720p DVDRip x264 AAC { TaRa }.mkv

Download this torrent | Magnet Download
Health:
Seeds: 0
Leechers: 21
Completed:
Last Checked: 24-10-2018 09:02:37
External Torrent
Update Stats



Images Host

Poster


Watch-Free-HD     Download

Details
Name:Saheb Biwi Aur Gangster ( 2011 ) Hindi 720p DVDRip x264 AAC { TaRa }.mkv
Description:

Quote:

Saheb Biwi Aur Gangster ( 2011 ) Hindi 720p DVDRip x264 AAC { TaRa }.mkv


===================================================================
General
Complete name               : Saheb Biwi Aur Gangster ( 2011 ) Hindi 720p DVDRip x264 AAC { TaRa }.mkv
Format                      : Matroska
Format version              : Version 4 / Version 2
File size                   : 1 000 MiB
Duration                    : 1 h 58 min
Overall bit rate            : 1 178 kb/s
===================================================================
Video
ID                          : 1
Format                      : AVC
Format/Info                 : Advanced Video Codec
Format profile              : [email protected]
Format settings, CABAC      : Yes
Format settings, ReFrames   : 12 frames
Codec ID                    : V_MPEG4/ISO/AVC
Duration                    : 1 h 58 min
Bit rate                    : 1 050 kb/s
Width                       : 1 280 pixels
Height                      : 544 pixels
Display aspect ratio        : 2.35:1
Frame rate mode             : Constant
Frame rate                  : 25.000 FPS
Color space                 : YUV
Chroma subsampling          : 4:2:0
Bit depth                   : 8 bits
Scan type                   : Progressive
Bits/(Pixel*Frame)          : 0.060
Stream size                 : 892 MiB (89%)
Title                       : .....::::: TaRa :::::.....
Language                    : Hindi
Default                     : Yes
Forced                      : No
===================================================================
Audio
ID                          : 2
Format                      : AAC
Format/Info                 : Advanced Audio Codec
Format profile              : LC
Codec ID                    : A_AAC
Duration                    : 1 h 58 min
Bit rate                    : 126 kb/s
Channel(s)                  : 2 channels
Channel positions           : Front: L R
Sampling rate               : 44.1 kHz
Frame rate                  : 43.066 FPS (1024 spf)
Compression mode            : Lossy
Stream size                 : 107 MiB (11%)
Title                       : .....::::: TaRa :::::.....
Language                    : Hindi
Default                     : Yes
Forced                      : No
===================================================================































Category:Movies > Bollywood
Lang:Hindi
Total Size:1,018.98 MB
Info Hash:a020cf244c18a337038b93297278e44fed37d9ad
Added By:SkTaRa
Date Added:28-03-2017 15:56:21
Downloads:1,064

Ratings:Not Yet Rated (Log in to rate it)

  


Tracker:
udp://tracker.ccc.de:80/announce

This Torrent also has backup trackers
URLSeedersLeechersCompleted
http://tracker.dler.org:6969/announce000
http://ipv4.tracker.harry.lu:80/announce140


File List: 


Comments

<< Previous      Next >>
1 - 1

[Report] Posted: 12-09-2017 at 06:48:43
ayushayush1



pl seed struck at 98%

1 - 1
<< Previous      Next >>


Top
Copyright 2018 DownloadHD -|- Page Generated In 3.860951 secs.
-|- RSS Feed -|- Feed Info
Worachai Sirikongsuwan | The Navajo | 裂口女2