Login
Username:
Password:
[Signup]
[Recover Account]


Browse Torrents

Poll


You must be logged in to view polls



Latest Torrents
A Turtle's Tale 2 ...
- [Size: 1.26 GB]

Ekon.Eken-[2018]-[...
- [Size: 1.99 GB]

Madras Cafe (2013)...
- [Size: 1.69 GB]

Crazy Frog - The B...
- [Size: 111.67 MB]

Beyond.The.Sky.201...
- [Size: 16.97 GB]


Torrent Details For "Black.Moon.1975.1080p.BluRay.x264-aAF"

Black.Moon.1975.1080p.BluRay.x264-aAF

Download this torrent | Magnet Download
Health:
Seeds: 0
Leechers: 8
Completed:
Last Checked: 30-04-2018 06:27:29
External Torrent
Update Stats



Images Host

Poster


iMDB
Imdb Picture Original Title: Black Moon
Title: Svart mÄne
Year: 1975
Runtime: 95 minutes
Votes: 3815
Rating: 6.3/10
Language: English, French
Country: France, West Germany
All Genres: Fantasy, Mystery, Sci-Fi
Plot Outline: To escape a gender war, a girl flees to a remote farmhouse and becomes part of an extensive family's unusual, perhaps even supernatural, lifestyle.
Tagline: An apocalyptic Alice in Wonderland!
Director: Louis Malle
Writing By: Louis Malle,Joyce Buñuel,Ghislain Uhry,
Produced By: Claude Nedjar,
Plot:

There is a war in the world between the men and the women. A young girl tries to escape this reality and comes to a hidden place where a strange unicorn lives with a family: Sister, Brother, many children and an old woman that never leaves her bed but stays in contact with the world through her radio. Since the content of this picture is not as important as the pictures and allegories, the simple plot can not be described further.

- Written by Benjamin Stello

In a dystopian future, a mid-teen named Lily is trying to escape the bloodshed associated with the war between the sexes, she barely getting away from a group of men that have just assassinated a group of women. Lily is able to take "fantasy" refuge on a farmhouse property, which is inhabited by among others: an old bedridden woman, who speaks largely in some foreign tongue, speaks to others over a wireless radio, has a rat named Humphrey as a friend, and receives her nourishment in an unconventional manner for a person her age; a non-speaking brother and sister both also named Lily (although his is spelled differently), who she assumes are the bedridden woman's children, and the brother who communicates through touch; a group of naked children shepherds; and a talking unicorn. Although Lily's relationships with the others are not always in harmony, especially with the elderly woman, she tries to find her rightful place there in light of the alternative.

- Written by Huggo

To escape a gender war, a girl flees to a remote farmhouse and becomes part of an extensive family's unusual, perhaps even supernatural, lifestyle.

- Written by Anonymous
Cast:
Cathryn Harrison as Lily
Therese Giehse as Old Lady
Alexandra Stewart as Sister Lily
Joe Dallesandro as Brother Lily


Watch-Free-HD     Download

Details
Name:Black.Moon.1975.1080p.BluRay.x264-aAF
Description:
MediaInfo

Video
ID                                       : 1
Format                                   : AVC
Format/Info                              : Advanced Video Codec
Format profile                           : [email protected]
Format settings, CABAC                   : Yes
Format settings, ReFrames                : 4 frames
Codec ID                                 : V_MPEG4/ISO/AVC
Duration                                 : 1 h 40 min
Bit rate                                 : 8 694 kb/s
Width                                    : 1 760 pixels
Height                                   : 1 080 pixels
Display aspect ratio                     : 16:10
Frame rate mode                          : Constant
Frame rate                               : 23.976 (24000/1001) FPS
Color space                              : YUV
Chroma subsampling                       : 4:2:0
Bit depth                                : 8 bits
Scan type                                : Progressive
Bits/(Pixel*Frame)                       : 0.191
Stream size                              : 5.98 GiB (91%)
Writing library                          : x264 core 115 r2008 4c552d8
Encoding settings                        : cabac=1 / ref=4 / deblock=1:0:0 / analyse=0x3:0x133 / me=umh / subme=8 / psy=1 / psy_rd=1.00:0.00 / mixed_ref=1 / me_range=16 / chroma_me=1 / trellis=1 / 8x8dct=1 / cqm=0 / deadzone=21,11 / fast_pskip=0 / chroma_qp_offset=-2 / threads=12 / sliced_threads=0 / nr=0 / decimate=1 / interlaced=0 / bluray_compat=0 / constrained_intra=0 / bframes=3 / b_pyramid=2 / b_adapt=1 / b_bias=0 / direct=1 / weightb=1 / open_gop=0 / weightp=2 / keyint=240 / keyint_min=24 / scenecut=40 / intra_refresh=0 / rc_lookahead=40 / rc=2pass / mbtree=1 / bitrate=8694 / ratetol=1.0 / qcomp=0.60 / qpmin=0 / qpmax=69 / qpstep=4 / cplxblur=20.0 / qblur=0.5 / ip_ratio=1.40 / aq=1:1.00
Language                                 : English
Default                                  : Yes
Forced                                   : No

Audio
ID                                       : 2
Format                                   : AC-3
Format/Info                              : Audio Coding 3
Format settings, Endianness              : Big
Codec ID                                 : A_AC3
Duration                                 : 1 h 40 min
Bit rate mode                            : Constant
Bit rate                                 : 640 kb/s
Channel(s)                               : 6 channels
Channel(s)_Original                      : 1 channel
Channel positions                        : Front: C
Sampling rate                            : 48.0 kHz
Frame rate                               : 31.250 FPS (1536 spf)
Bit depth                                : 16 bits
Compression mode                         : Lossy
Stream size                              : 460 MiB (7%)
Service kind                             : Complete Main
Default                                  : Yes
Forced                                   : No


 
Category:Movies > 1080P Bluray
Lang:English  English
Total Size:6.56 GB
Info Hash:4020c64d2bc864a8b2527eb56133b06f2dfc2167
Added By:Agent47
Date Added:16-08-2017 11:09:32
Downloads:87

Ratings:Not Yet Rated (Log in to rate it)


Tracker:
http://tracker.trackerfix.com:80/announce


File List: 


Comments

No comments still posted

Top
Copyright 2018 DownloadHD -|- Page Generated In 0.780068 secs.
-|- RSS Feed -|- Feed Info
Films par année | Via Vallen | Itt Corporation