Login
Username:
Password:
[Signup]
[Recover Account]


Browse Torrents

Poll


You must be logged in to view polls



Latest Torrents
Murphy.Brown.S11E1...
- [Size: 148.61 MB]

Live.PD.S03E27.HDT...
- [Size: 1.29 GB]

Legacies.S01E07.HD...
- [Size: 194.67 MB]

Murphy.Brown.S11E1...
- [Size: 518.65 MB]

Legacies.S01E07.72...
- [Size: 728.13 MB]


Torrent Details For "Toilet - Ek Prem Katha (2017) - Pre DvDScr Rip[Mp4 - AAC3(5.1Ch)] - 850 MB"

Toilet - Ek Prem Katha (2017) - Pre DvDScr Rip[Mp4 - AAC3(5.1Ch)] - 850 MB

Download this torrent | Magnet Download
Health:
Seeds: 0
Leechers: 4
Completed: 117 
Last Checked: 31-08-2017 16:57:26
External Torrent
Update Stats



Images Host

Poster


iMDB
Imdb Picture Title: Toilet - Ek Prem Katha
Year: 2017
Language: Hindi
Country: India
All Genres: Comedy, Drama
Plot Outline: The movie is about PM Narendra Modi's 'Swacha Bharat Abhijan'. Its a comedy genre film based on the unhygienic condition in rural areas of India.
Tagline: What happens when two people in love cannot be together because of the lack of a toilet in the house?
Director: Shree Narayan Singh
Writing By: Garima,Siddharth,
Produced By: Prerna Arora,Shital Bhatia,Arjun N. Kapoor,Karan Shah,
Plot:

The movie is about PM Narendra Modi's 'Swacha Bharat Abhijan'. Its a comedy genre film based on the unhygienic condition in rural areas of India.


Cast:
Akshay Kumar as Keshav
Anupam Kher as Kakka
Bhumi Pednekar as Jaya
Jaspal Sharma as Dabloo,keshav's friend
Sana Khaan as Keshav's Girl Friend
Vijay Kumar Dogra as Shiv Shankar , Keshav's friend
Divyendu Sharma as Keshav's Friend
Mukesh Bhatt as Rastogi
Satyajeet Dubey as
Vikas Pal as Hari, keshav's friend


Watch-Free-HD     Download

Details
Name:Toilet - Ek Prem Katha (2017) - Pre DvDScr Rip[Mp4 - AAC3(5.1Ch)] - 850 MB
Description:
Toilet - Ek Prem Katha (2017) -
Pre DvDScr Rip[Mp4 - AAC3(5.1Ch)] - 850 MB
 




[code]
General
Format                                   : MPEG-4
Format profile                           : Base Media
Codec ID                                 : isom (isom)
File size                                : 850 MiB
Duration                                 : 2 h 48 min

Video
ID                                       : 1
Format                                   : AVC
Format/Info                              : Advanced Video Codec
Format profile                           : [email protected]
Format settings, CABAC                   : Yes
Format settings, RefFrames               : 4 frames
Codec ID                                 : avc1
Codec ID/Info                            : Advanced Video Coding
Duration                                 : 2 h 48 min
Bit rate                                 : 577 kb/s
Maximum bit rate                         : 2 241 kb/s
Width                                    : 656 pixels
Height                                   : 352 pixels
Display aspect ratio                     : 1.85:1
Frame rate mode                          : Constant
Frame rate                               : 25.000 FPS
Color space                              : YUV
Chroma subsampling                       : 4:2:0
Bit depth                                : 8 bits
Scan type                                : Progressive
Bits/(Pixel*Frame)                       : 0.100
Stream size                              : 694 MiB (81%)

Audio
ID                                       : 2
Format                                   : AAC
Format/Info                              : Advanced Audio Codec
Format profile                           : HE-AAC / LC
Codec ID                                 : 40
Duration                                 : 2 h 48 min
Bit rate mode                            : Variable
Bit rate                                 : 128 kb/s
Maximum bit rate                         : 138 kb/s
Channel(s)                               : 6 channels
Channel positions                        : Front: L C R, Side: L R, LFE
Stream size                              : 154 MiB (18%)

Thumbnail




Category:Movies > Bollywood
Lang:Hindi
Total Size:851.29 MB
Info Hash:d5db7054b1ba667d6a8372672cb39d5aa02c3e8c
Added By:Pherarim
Date Added:12-08-2017 06:55:08
Downloads:1,080

Ratings:Not Yet Rated (Log in to rate it)


Tracker:
udp://9.rarbg.me:2710/announce


File List: 


Comments

No comments still posted

Top
Copyright 2018 DownloadHD -|- Page Generated In 0.898681 secs.
-|- RSS Feed -|- Feed Info
Download | Aftermath | Phim Mới 2018 Thành Long Hợp Tác Lưu Đức Hoa Đạo Diễn (phim hay 2018)